<?xml version="1.0" standalone="no"?>
<!DOCTYPE svg PUBLIC "-//W3C//DTD SVG 1.1//EN" "http://www.w3.org/Graphics/SVG/1.1/DTD/svg11.dtd" >
<svg xmlns="http://www.w3.org/2000/svg" xmlns:xlink="http://www.w3.org/1999/xlink" version="1.1">
<metadata>
Created by FontForge 20170731 at Wed Mar 31 16:21:42 2021
 By Aleksey,,,
Copyright 2021 BlackFoundry
</metadata>
<defs>
<font id="NouvelR-Semibold" horiz-adv-x="580" >
  <font-face 
    font-family="NouvelR Semibold"
    font-weight="600"
    font-stretch="normal"
    units-per-em="1000"
    panose-1="0 0 0 0 0 0 0 0 0 0"
    ascent="800"
    descent="-200"
    x-height="494"
    cap-height="640"
    bbox="-166 -200 1306 977"
    underline-thickness="60"
    underline-position="-250"
    unicode-range="U+000D-25CA"
  />
<missing-glyph horiz-adv-x="728" 
d="M84 0v640h560v-640h-560zM198 539v-438h333v438h-333z" />
    <glyph glyph-name=".notdef" horiz-adv-x="728" 
d="M84 0v640h560v-640h-560zM198 539v-438h333v438h-333z" />
    <glyph glyph-name=".null" horiz-adv-x="0" 
 />
    <glyph glyph-name="nonmarkingreturn" horiz-adv-x="333" 
 />
    <glyph glyph-name="CR" unicode="&#xd;" horiz-adv-x="0" 
 />
    <glyph glyph-name="space" unicode=" " horiz-adv-x="170" 
 />
    <glyph glyph-name="exclam" unicode="!" horiz-adv-x="265" 
d="M75 382v258h114v-258l-17 -174h-80zM70 0v121h125v-121h-125z" />
    <glyph glyph-name="quotedbl" unicode="&#x22;" horiz-adv-x="475" 
d="M89 371l-22 269h123l-22 -269h-79zM307 371l-22 269h123l-22 -269h-79z" />
    <glyph glyph-name="numbersign" unicode="#" horiz-adv-x="719" 
d="M187 0h-110l34 140h-81v97h104l40 166h-91v97h114l34 140h110l-34 -140h192l34 140h109l-34 -140h82v-97h-105l-40 -166h92v-97h-115l-34 -140h-109l34 140h-192zM284 403l-40 -166h192l40 166h-192z" />
    <glyph glyph-name="dollar" unicode="$" horiz-adv-x="603" 
d="M315 91q58 0 92 22.5t34 62.5q0 36 -28.5 55.5t-91.5 29.5l-57 8q-102 16 -157 65.5t-55 125.5t51 126t140 61v92h98v-92q91 -12 145 -65.5t57 -135.5h-117q-4 50 -39 77t-97 27q-57 0 -89.5 -22.5t-32.5 -61.5q0 -37 31.5 -57t106.5 -31l57 -9q97 -14 147 -60.5
t50 -122.5q0 -85 -58 -136.5t-161 -58.5v-90h-98v95q-89 16 -142 71.5t-55 133.5h119q2 -49 44 -79.5t106 -30.5z" />
    <glyph glyph-name="percent" unicode="%" horiz-adv-x="928" 
d="M417 465q0 -81 -53.5 -132.5t-137.5 -51.5q-85 0 -138.5 51.5t-53.5 132.5t54 133t138 52t137.5 -51.5t53.5 -133.5zM320 0h-109l394 640h109zM130 465q0 -43 26.5 -69.5t69.5 -26.5q41 0 67.5 26.5t26.5 69.5t-26.5 70t-67.5 27q-42 0 -69 -27t-27 -70zM891 174
q0 -81 -53.5 -132.5t-138.5 -51.5q-84 0 -138 51.5t-54 132.5t54 133t138 52t138 -52t54 -133zM604 174q0 -43 26.5 -69.5t68.5 -26.5t68.5 26.5t26.5 69.5t-26.5 70t-68.5 27t-68.5 -27.5t-26.5 -69.5z" />
    <glyph glyph-name="ampersand" unicode="&#x26;" horiz-adv-x="707" 
d="M152 348q-27 32 -40 65.5t-13 69.5q0 76 53 121.5t140 45.5q95 0 154.5 -59t59.5 -150h-112q-1 49 -27.5 79t-69.5 30q-36 0 -59 -20.5t-23 -53.5q0 -24 15 -49.5t46 -53.5l153 -139v88h215v-98h-203l247 -224h-153l-83 74q-39 -42 -88 -63t-108 -21q-99 0 -158.5 50.5
t-59.5 133.5q0 56 29.5 101t84.5 73zM149 188q0 -45 30.5 -71.5t82.5 -26.5q34 0 64 13t53 37l-167 149q-31 -17 -47 -43t-16 -58z" />
    <glyph glyph-name="quotesingle" unicode="'" horiz-adv-x="258" 
d="M89 371l-22 269h123l-22 -269h-79z" />
    <glyph glyph-name="parenleft" unicode="(" horiz-adv-x="315" 
d="M297 -134h-117q-57 96 -86 199.5t-29 212.5q0 113 29 216.5t86 195.5h117q-57 -92 -86.5 -196.5t-29.5 -215.5q0 -107 29.5 -212t86.5 -200z" />
    <glyph glyph-name="parenright" unicode=")" horiz-adv-x="315" 
d="M250 278q0 -111 -29 -214.5t-86 -197.5h-117q56 93 85.5 198t29.5 214q0 111 -29.5 215.5t-85.5 196.5h117q57 -93 86 -196.5t29 -215.5z" />
    <glyph glyph-name="asterisk" unicode="*" horiz-adv-x="429" 
d="M215 395l-71 -125l-80 59l98 105l-142 29l31 94l131 -60l-17 143h99l-17 -143l132 60l30 -94l-140 -29l97 -105l-80 -59z" />
    <glyph glyph-name="plus" unicode="+" 
d="M243 234h-175v94h175v175h94v-175h175v-94h-175v-175h-94v175z" />
    <glyph glyph-name="comma" unicode="," horiz-adv-x="233" 
d="M7 -148l51 269h124l-75 -269h-100z" />
    <glyph glyph-name="hyphen" unicode="-" horiz-adv-x="354" 
d="M309 234h-264v94h264v-94z" />
    <glyph glyph-name="period" unicode="." horiz-adv-x="238" 
d="M56 0v121h125v-121h-125z" />
    <glyph glyph-name="slash" unicode="/" horiz-adv-x="344" 
d="M63 -134h-117l305 824h117z" />
    <glyph glyph-name="zero" unicode="0" horiz-adv-x="632" 
d="M49 320q0 149 72.5 239.5t193.5 90.5q122 0 194.5 -90t72.5 -240t-73 -240.5t-194 -90.5q-120 0 -193 91t-73 240zM465 319q0 106 -40 166t-110 60t-109.5 -60.5t-39.5 -165.5t39.5 -165t109.5 -60q71 0 110.5 59t39.5 166z" />
    <glyph glyph-name="one" unicode="1" horiz-adv-x="344" 
d="M261 640v-640h-113v535h-125l32 105h206z" />
    <glyph glyph-name="two" unicode="2" horiz-adv-x="544" 
d="M495 0h-445v98l215 183q61 52 83.5 87t22.5 75q0 47 -29.5 77t-76.5 30q-48 0 -78 -31t-33 -82h-112q1 93 64.5 153t164.5 60q97 0 156 -55.5t59 -145.5q0 -62 -34 -116.5t-122 -128.5l-125 -106h290v-98z" />
    <glyph glyph-name="three" unicode="3" horiz-adv-x="546" 
d="M399 329q46 -21 71.5 -61t25.5 -92q0 -80 -64 -133t-161 -53q-98 0 -163 55t-70 142h111q5 -47 37 -74t83 -27q53 0 85 26t32 70t-29.5 71t-77.5 27h-116v91h107q45 0 73 25t28 65q0 42 -29.5 67.5t-75.5 25.5q-48 0 -78.5 -27t-35.5 -74h-111q6 88 68.5 142.5
t157.5 54.5t154.5 -51t59.5 -133q0 -45 -21.5 -81t-60.5 -56z" />
    <glyph glyph-name="four" unicode="4" horiz-adv-x="583" 
d="M462 0h-110v138h-324v96l311 406h123v-406h95v-96h-95v-138zM355 512l-212 -278h212v278z" />
    <glyph glyph-name="five" unicode="5" horiz-adv-x="555" 
d="M162 266h-101l38 374h379v-98h-288l-16 -156q27 15 58 23t64 8q97 0 157 -56.5t60 -148.5q0 -98 -63 -160t-163 -62q-98 0 -163 54t-71 140h111q5 -44 38 -71t81 -27q54 0 88 34t34 88t-34.5 87t-90.5 33q-41 0 -72 -16t-46 -46z" />
    <glyph glyph-name="six" unicode="6" horiz-adv-x="558" 
d="M123 432l139 208h124l-145 -209q13 3 25 4t25 1q103 0 167 -60.5t64 -156.5q0 -99 -69 -164t-175 -65t-173.5 64t-67.5 164q0 50 19.5 97.5t66.5 116.5zM143 219q0 -58 37 -93t98 -35q59 0 96 35t37 93t-36.5 92.5t-96.5 34.5t-97.5 -34.5t-37.5 -92.5z" />
    <glyph glyph-name="seven" unicode="7" horiz-adv-x="501" 
d="M349 542h-329v98h452v-98l-246 -542h-123z" />
    <glyph glyph-name="eight" unicode="8" horiz-adv-x="583" 
d="M65 472q0 77 64 127.5t163 50.5q98 0 162 -50.5t64 -127.5q0 -46 -22.5 -82.5t-64.5 -58.5q50 -24 77 -63.5t27 -89.5q0 -83 -68.5 -135.5t-174.5 -52.5q-107 0 -175.5 52.5t-68.5 135.5q0 50 27 89.5t76 63.5q-42 22 -64 58.5t-22 82.5zM292 373q56 0 88 24.5t32 66.5
q0 41 -32.5 65t-87.5 24q-56 0 -88.5 -24.5t-32.5 -65.5q0 -42 32 -66t89 -24zM292 90q60 0 95.5 27t35.5 73q0 45 -35.5 72.5t-95.5 27.5t-96.5 -27.5t-36.5 -72.5t36 -72.5t97 -27.5z" />
    <glyph glyph-name="nine" unicode="9" horiz-adv-x="558" 
d="M435 208l-139 -208h-125l144 208q-12 -3 -23.5 -4t-24.5 -1q-103 0 -167 61t-64 157q0 99 69 164t175 65t173 -64t67 -164q0 -50 -19.5 -97.5t-65.5 -116.5zM414 421q0 58 -37 93t-97 35t-97 -35t-37 -93q0 -57 37 -92t97 -35t97 35t37 92z" />
    <glyph glyph-name="colon" unicode=":" horiz-adv-x="247" 
d="M61 375v121h125v-121h-125zM61 0v121h125v-121h-125z" />
    <glyph glyph-name="semicolon" unicode=";" horiz-adv-x="243" 
d="M61 375v121h125v-121h-125zM12 -148l51 269h123l-75 -269h-99z" />
    <glyph glyph-name="less" unicode="&#x3c;" 
d="M512 48l-444 188v90l444 187v-103l-324 -127l324 -128v-107z" />
    <glyph glyph-name="equal" unicode="=" 
d="M512 334h-444v94h444v-94zM512 134h-444v94h444v-94z" />
    <glyph glyph-name="greater" unicode="&#x3e;" 
d="M68 513l444 -188v-90l-444 -187v103l323 128l-323 127v107z" />
    <glyph glyph-name="question" unicode="?" horiz-adv-x="497" 
d="M476 448q0 -79 -45.5 -132.5t-144.5 -89.5l-111 -40v104l78 30q56 23 82 53t26 72q0 49 -30 77t-81 28q-53 0 -85 -30t-35 -83h-112q1 95 65 154t168 59q101 0 163 -55.5t62 -146.5zM175 0v121h125v-121h-125z" />
    <glyph glyph-name="at" unicode="@" horiz-adv-x="969" 
d="M923 294q0 -126 -64.5 -205t-172.5 -79h-34l-20 64q-31 -36 -74.5 -55t-93.5 -19q-104 0 -175 73.5t-71 184.5t71 184.5t175 73.5q50 0 93.5 -19t74.5 -55l20 64h80v-421q49 7 82 66t33 143q0 145 -98 237.5t-251 92.5q-163 0 -267.5 -102t-104.5 -262q0 -161 102.5 -258
t283.5 -97h228v-74h-228q-214 0 -337.5 118t-123.5 311t125.5 315.5t321.5 122.5q186 0 305.5 -113.5t119.5 -290.5zM480 99q65 0 107 44.5t42 114.5t-42 114.5t-107 44.5q-66 0 -108 -44t-42 -115t42 -115t108 -44z" />
    <glyph glyph-name="A" unicode="A" horiz-adv-x="711" 
d="M296 640h119l277 -640h-124l-65 155h-300l-65 -155h-119zM353 509l-107 -252h214z" />
    <glyph glyph-name="B" unicode="B" horiz-adv-x="635" 
d="M84 0v640h261q103 0 162.5 -45.5t59.5 -125.5q0 -49 -21 -83.5t-63 -54.5q52 -21 78 -59.5t26 -93.5q0 -84 -59.5 -131t-164.5 -47h-279zM451 457q0 42 -29 64.5t-83 22.5h-141v-173h141q54 0 83 22.5t29 63.5zM471 188q0 44 -30 68t-86 24h-157v-184h157q56 0 86 24
t30 68z" />
    <glyph glyph-name="C" unicode="C" horiz-adv-x="728" 
d="M571 258h119q-20 -120 -108 -194t-212 -74q-141 0 -233.5 93.5t-92.5 236.5t92.5 236.5t233.5 93.5q124 0 212 -73.5t108 -194.5h-119q-18 77 -71 120.5t-130 43.5q-93 0 -151 -62t-58 -164q0 -101 58 -163t151 -62q78 0 131 43t70 120z" />
    <glyph glyph-name="D" unicode="D" horiz-adv-x="715" 
d="M84 0v640h258q144 0 237 -90.5t93 -229.5t-93 -229.5t-237 -90.5h-258zM556 320q0 97 -59.5 156t-154.5 59h-144v-430h144q95 0 154.5 59t59.5 156z" />
    <glyph glyph-name="E" unicode="E" horiz-adv-x="578" 
d="M84 0v640h449v-103h-335v-163h305v-100h-305v-171h335v-103h-449z" />
    <glyph glyph-name="F" unicode="F" horiz-adv-x="558" 
d="M84 0v640h444v-105h-330v-188h300v-100h-300v-247h-114z" />
    <glyph glyph-name="G" unicode="G" horiz-adv-x="739" 
d="M348 349h346q1 -17 1.5 -27t0.5 -18q0 -140 -90 -227t-232 -87q-143 0 -236.5 93.5t-93.5 236.5t93 236.5t235 93.5q119 0 203.5 -63t106.5 -165h-120q-17 56 -68 90t-121 34q-95 0 -153.5 -62t-58.5 -164q0 -103 59 -165t155 -62q86 0 139 42t62 117h-228v97z" />
    <glyph glyph-name="H" unicode="H" horiz-adv-x="728" 
d="M84 0v640h114v-263h333v263h113v-640h-113v276h-333v-276h-114z" />
    <glyph glyph-name="I" unicode="I" horiz-adv-x="282" 
d="M84 0v640h114v-640h-114z" />
    <glyph glyph-name="J" unicode="J" horiz-adv-x="400" 
d="M211 197v443h114v-451q0 -92 -51.5 -140.5t-147.5 -48.5h-104v102h85q57 0 80.5 21.5t23.5 73.5z" />
    <glyph glyph-name="K" unicode="K" horiz-adv-x="671" 
d="M84 0v640h114v-262h76l238 262h134v-4l-276 -301l283 -330v-5h-142l-233 277h-80v-277h-114z" />
    <glyph glyph-name="L" unicode="L" horiz-adv-x="536" 
d="M84 0v640h114v-535h316v-105h-430z" />
    <glyph glyph-name="M" unicode="M" horiz-adv-x="849" 
d="M478 53h-111l-157 415l-45 -468h-110l60 640h145l166 -450l166 450h142l61 -640h-116l-46 475z" />
    <glyph glyph-name="N" unicode="N" horiz-adv-x="747" 
d="M84 0v640h110l359 -461v461h110v-640h-110l-359 460v-460h-110z" />
    <glyph glyph-name="O" unicode="O" horiz-adv-x="748" 
d="M374 650q143 0 236.5 -93.5t93.5 -236.5q0 -144 -93.5 -237t-236.5 -93t-236.5 93t-93.5 237q0 143 93.5 236.5t236.5 93.5zM374 95q95 0 154 62t59 163t-59 163.5t-154 62.5t-154 -62.5t-59 -163.5t59 -163t154 -62z" />
    <glyph glyph-name="P" unicode="P" horiz-adv-x="634" 
d="M84 0v640h261q121 0 187 -55.5t66 -157.5t-66 -157.5t-187 -55.5h-147v-214h-114zM482 427q0 55 -34.5 83.5t-99.5 28.5h-150v-224h150q65 0 99.5 28.5t34.5 83.5z" />
    <glyph glyph-name="Q" unicode="Q" horiz-adv-x="748" 
d="M374 650q143 0 236.5 -93.5t93.5 -236.5q0 -128 -75 -217.5t-198 -108.5v-94h-114v94q-123 19 -198 108.5t-75 217.5q0 143 93.5 236.5t236.5 93.5zM317 97v134h114v-134q72 18 114 77.5t42 145.5q0 101 -59 163.5t-154 62.5t-154 -62.5t-59 -163.5q0 -86 42 -145.5
t114 -77.5z" />
    <glyph glyph-name="R" unicode="R" horiz-adv-x="644" 
d="M610 0h-132l-131 223h-149v-223h-114v640h261q116 0 180.5 -55t64.5 -154q0 -70 -33.5 -118.5t-96.5 -71.5zM474 430q0 52 -33 80.5t-94 28.5h-149v-218h149q60 0 93.5 28.5t33.5 80.5z" />
    <glyph glyph-name="S" unicode="S" horiz-adv-x="603" 
d="M315 91q58 0 92 22.5t34 62.5q0 36 -28.5 55.5t-91.5 29.5l-57 8q-102 16 -157 65.5t-55 125.5q0 87 64.5 138.5t173.5 51.5q112 0 180.5 -55t72.5 -149h-117q-4 50 -39 77t-97 27q-57 0 -89.5 -22.5t-32.5 -61.5q0 -37 31.5 -57t106.5 -31l57 -9q97 -14 147 -60.5
t50 -122.5q0 -90 -66 -143t-181 -53q-118 0 -191.5 59t-75.5 152h119q2 -49 44 -79.5t106 -30.5z" />
    <glyph glyph-name="T" unicode="T" horiz-adv-x="615" 
d="M251 535h-230v105h573v-105h-229v-535h-114v535z" />
    <glyph glyph-name="U" unicode="U" horiz-adv-x="706" 
d="M353 -10q-136 0 -210 73t-74 207v370h114v-366q0 -88 43 -133.5t127 -45.5q83 0 126.5 45.5t43.5 133.5v366h114v-370q0 -134 -74 -207t-210 -73z" />
    <glyph glyph-name="V" unicode="V" horiz-adv-x="703" 
d="M412 0h-121l-276 640h126l213 -506l212 506h122z" />
    <glyph glyph-name="W" unicode="W" horiz-adv-x="959" 
d="M21 640h121l140 -487l151 364l-48 123h123l177 -475l137 475h117l-193 -640h-113l-147 379l-159 -379h-113z" />
    <glyph glyph-name="X" unicode="X" horiz-adv-x="657" 
d="M148 0h-129l237 331l-226 309h141l162 -222l156 222h129l-220 -310l241 -330h-141l-177 242z" />
    <glyph glyph-name="Y" unicode="Y" horiz-adv-x="648" 
d="M514 640h126l-260 -385v-255h-114v255l-258 385h133l186 -283z" />
    <glyph glyph-name="Z" unicode="Z" horiz-adv-x="582" 
d="M392 536h-343v104h487v-104l-356 -431h365v-105h-509v105z" />
    <glyph glyph-name="bracketleft" unicode="[" horiz-adv-x="370" 
d="M338 -134h-240v824h240v-101h-126v-622h126v-101z" />
    <glyph glyph-name="backslash" unicode="\" horiz-adv-x="344" 
d="M94 690l304 -824h-118l-304 824h118z" />
    <glyph glyph-name="bracketright" unicode="]" horiz-adv-x="370" 
d="M271 690v-824h-240v101h126v622h-126v101h240z" />
    <glyph glyph-name="asciicircum" unicode="^" 
d="M245 640h90l188 -444h-107l-127 323l-128 -323h-103z" />
    <glyph glyph-name="underscore" unicode="_" horiz-adv-x="491" 
d="M454 -129h-410v80h410v-80z" />
    <glyph glyph-name="grave" unicode="`" horiz-adv-x="500" 
d="M84 690h114l100 -150h-96z" />
    <glyph glyph-name="a" unicode="a" horiz-adv-x="627" 
d="M553 494v-494h-80l-20 64q-31 -36 -74.5 -55t-93.5 -19q-104 0 -175 73t-71 184t71 184t175 73q50 0 93.5 -19t74.5 -55l20 64h80zM301 89q65 0 107 44t42 114t-42 114.5t-107 44.5q-66 0 -107.5 -44t-41.5 -115t41.5 -114.5t107.5 -43.5z" />
    <glyph glyph-name="b" unicode="b" horiz-adv-x="627" 
d="M154 0h-80v690h111v-251q29 32 69.5 48.5t86.5 16.5q105 0 176 -73t71 -184t-71 -184t-176 -73q-50 0 -93 19t-74 55zM326 406q-65 0 -107 -44.5t-42 -114.5t42 -114t107 -44q66 0 107.5 43.5t41.5 114.5t-41.5 115t-107.5 44z" />
    <glyph glyph-name="c" unicode="c" 
d="M430 202h114q-14 -97 -82.5 -154.5t-168.5 -57.5q-111 0 -182.5 72t-71.5 185t71.5 185t182.5 72q100 0 168.5 -57.5t82.5 -154.5h-114q-12 53 -48.5 83.5t-88.5 30.5q-63 0 -102 -44t-39 -115t39 -114.5t102 -43.5q52 0 88.5 30t48.5 83z" />
    <glyph glyph-name="d" unicode="d" horiz-adv-x="627" 
d="M553 690v-690h-80l-20 64q-31 -36 -74.5 -55t-93.5 -19q-104 0 -175 73t-71 184t71 184t175 73q47 0 87.5 -16.5t69.5 -48.5v251h111zM301 89q65 0 107 44t42 114t-42 114.5t-107 44.5q-66 0 -107.5 -44t-41.5 -115t41.5 -114.5t107.5 -43.5z" />
    <glyph glyph-name="e" unicode="e" horiz-adv-x="581" 
d="M427 166h111q-14 -79 -79 -127.5t-159 -48.5q-115 0 -187.5 72t-72.5 186t70.5 185t183.5 71q109 0 178 -69t69 -180q0 -6 -0.5 -16t-1.5 -21h-389q7 -64 47 -99t103 -35q49 0 82.5 22t44.5 60zM291 412q-57 0 -93 -30t-46 -87h280q-6 54 -44.5 85.5t-96.5 31.5z" />
    <glyph glyph-name="f" unicode="f" horiz-adv-x="387" 
d="M93 389h-73v93h73v30q0 90 46.5 134t140.5 44h113l-23 -91h-72q-49 0 -71.5 -20t-22.5 -64v-33h165v-93h-165v-389h-111v389z" />
    <glyph glyph-name="g" unicode="g" horiz-adv-x="633" 
d="M460 431l23 63h76v-505q0 -95 -44.5 -137t-146.5 -42h-252l24 101h228q42 0 60.5 18t18.5 60v74q-32 -29 -72.5 -44t-86.5 -15q-105 0 -177 71t-72 179t72 179t177 71q51 0 95.5 -19t76.5 -54zM303 103q67 0 110 42t43 109t-43 109.5t-110 42.5t-109.5 -42.5
t-42.5 -109.5t42.5 -109t109.5 -42z" />
    <glyph glyph-name="h" unicode="h" horiz-adv-x="606" 
d="M309 405q-57 0 -90.5 -34t-33.5 -91v-280h-111v690h111v-243q27 28 65 42.5t82 14.5q94 0 152.5 -57t58.5 -150v-297h-111v280q0 58 -33.5 91.5t-89.5 33.5z" />
    <glyph glyph-name="i" unicode="i" horiz-adv-x="259" 
d="M72 570v114h115v-114h-115zM74 0v494h111v-494h-111z" />
    <glyph glyph-name="j" unicode="j" horiz-adv-x="259" 
d="M72 570v114h115v-114h-115zM74 -24v518h111v-520q0 -85 -42 -124.5t-132 -39.5h-67v99h49q42 0 61.5 16t19.5 51z" />
    <glyph glyph-name="k" unicode="k" horiz-adv-x="566" 
d="M74 0v690h111v-391h73l161 195h123v-5l-194 -233l205 -251v-5h-132l-165 204h-71v-204h-111z" />
    <glyph glyph-name="l" unicode="l" horiz-adv-x="259" 
d="M74 0v690h111v-690h-111z" />
    <glyph glyph-name="m" unicode="m" horiz-adv-x="923" 
d="M298 405q-52 0 -82.5 -31t-30.5 -84v-290h-111v494h80l18 -57q24 32 63 49.5t86 17.5q55 0 99 -21.5t70 -60.5q24 39 68 60.5t99 21.5q90 0 146 -54t56 -143v-307h-111v290q0 53 -31 84t-82 31q-52 0 -82.5 -31t-30.5 -84v-290h-111v290q0 53 -30.5 84t-82.5 31z" />
    <glyph glyph-name="n" unicode="n" horiz-adv-x="606" 
d="M309 405q-57 0 -90.5 -34t-33.5 -91v-280h-111v494h80l19 -61q26 34 67.5 52.5t91.5 18.5q94 0 152.5 -57t58.5 -150v-297h-111v280q0 58 -33.5 91.5t-89.5 33.5z" />
    <glyph glyph-name="o" unicode="o" horiz-adv-x="603" 
d="M301 504q115 0 189 -72t74 -185t-74 -185t-189 -72t-188.5 72t-73.5 185t73.5 185t188.5 72zM301 89q67 0 109 43.5t42 114.5t-42 115t-109 44t-108.5 -44t-41.5 -115t41.5 -114.5t108.5 -43.5z" />
    <glyph glyph-name="p" unicode="p" horiz-adv-x="627" 
d="M74 -190v684h80l20 -64q31 36 74 55t93 19q105 0 176 -73t71 -184t-71 -184t-176 -73q-46 0 -86.5 16.5t-69.5 48.5v-245h-111zM326 406q-65 0 -107 -44.5t-42 -114.5t42 -114t107 -44q66 0 107.5 43.5t41.5 114.5t-41.5 115t-107.5 44z" />
    <glyph glyph-name="q" unicode="q" horiz-adv-x="627" 
d="M473 494h80v-684h-111v246q-29 -32 -69.5 -49t-87.5 -17q-104 0 -175 73t-71 184t71 184t175 73q50 0 93.5 -19t74.5 -55zM301 89q65 0 107 44t42 114t-42 114.5t-107 44.5q-66 0 -107.5 -44t-41.5 -115t41.5 -114.5t107.5 -43.5z" />
    <glyph glyph-name="r" unicode="r" horiz-adv-x="393" 
d="M74 0v494h309l-33 -101h-165v-393h-111z" />
    <glyph glyph-name="s" unicode="s" horiz-adv-x="509" 
d="M265 78q46 0 69.5 14.5t23.5 42.5q0 26 -21 39.5t-69 20.5l-55 7q-81 12 -122.5 49.5t-41.5 99.5q0 70 53.5 111.5t143.5 41.5q93 0 152 -45t60 -116h-105q-1 34 -29.5 54t-77.5 20q-42 0 -65 -15t-23 -43q0 -25 21 -39t67 -21l55 -8q85 -12 126 -47.5t41 -96.5
q0 -72 -55 -114.5t-148 -42.5q-98 0 -160 49t-64 126h108q2 -39 33 -63t83 -24z" />
    <glyph glyph-name="t" unicode="t" horiz-adv-x="405" 
d="M291 102h84v-102h-87q-101 0 -147.5 41t-46.5 131v229h-79v18l171 176h19v-101h163v-93h-163v-221q0 -40 21 -59t65 -19z" />
    <glyph glyph-name="u" unicode="u" horiz-adv-x="581" 
d="M290 -10q-105 0 -167 57.5t-62 154.5v292h111v-281q0 -58 31.5 -91t86.5 -33q56 0 87.5 33t31.5 91v281h111v-292q0 -96 -63 -154t-167 -58z" />
    <glyph glyph-name="v" unicode="v" horiz-adv-x="554" 
d="M337 0h-120l-207 494h116l152 -371l152 371h113z" />
    <glyph glyph-name="w" unicode="w" horiz-adv-x="822" 
d="M647 0h-115l-115 294l-122 -294h-107l-174 494h111l126 -364l118 285l-31 79h112l140 -366l115 366h101z" />
    <glyph glyph-name="x" unicode="x" horiz-adv-x="560" 
d="M137 0h-125l202 256l-187 238h133l126 -161l125 161h126l-189 -240l199 -254h-133l-139 177z" />
    <glyph glyph-name="y" unicode="y" horiz-adv-x="555" 
d="M235 -19l8 22h-36l-196 491h116l154 -394l150 394h112l-212 -544q-28 -76 -71.5 -108t-125.5 -32h-69v99h63q48 0 69.5 15.5t37.5 56.5z" />
    <glyph glyph-name="z" unicode="z" horiz-adv-x="497" 
d="M321 401h-279v93h409v-93l-286 -307h299v-94h-430v94z" />
    <glyph glyph-name="braceleft" unicode="{" horiz-adv-x="399" 
d="M25 227v102h34q50 0 71 19t16 59l-11 89q-12 100 36 147t161 47h46v-101h-39q-51 0 -73 -23t-16 -72l11 -89q7 -48 -9.5 -79.5t-56.5 -47.5q40 -16 56.5 -47.5t9.5 -79.5l-11 -88q-6 -50 16 -73t73 -23h39v-101h-46q-113 0 -161 47t-36 147l11 89q5 40 -16 59t-71 19h-34
z" />
    <glyph glyph-name="bar" unicode="|" horiz-adv-x="310" 
d="M212 -134h-114v824h114v-824z" />
    <glyph glyph-name="braceright" unicode="}" horiz-adv-x="399" 
d="M373 329v-102h-34q-50 0 -71 -19t-16 -59l11 -89q12 -100 -36 -147t-161 -47h-46v101h39q51 0 73 23t17 73l-11 88q-7 48 9 79.5t56 47.5q-40 16 -56 47.5t-9 79.5l11 89q5 50 -17 72.5t-73 22.5h-39v101h46q113 0 161 -47t36 -147l-11 -89q-5 -40 16 -59t71 -19h34z" />
    <glyph glyph-name="asciitilde" unicode="~" 
d="M140 199h-85q0 84 34.5 129.5t95.5 45.5q30 0 58.5 -11.5t74.5 -46.5q31 -23 45.5 -30t27.5 -7q24 0 36.5 22t12.5 63h85q0 -84 -34.5 -129.5t-95.5 -45.5q-30 0 -58.5 11.5t-74.5 46.5q-31 23 -45.5 30t-27.5 7q-24 0 -36.5 -22t-12.5 -63z" />
    <glyph glyph-name="uni00A0" unicode="&#xa0;" horiz-adv-x="170" 
 />
    <glyph glyph-name="exclamdown" unicode="&#xa1;" horiz-adv-x="257" 
d="M192 496v-121h-125v121h125zM186 114v-258h-114v258l17 174h80z" />
    <glyph glyph-name="cent" unicode="&#xa2;" horiz-adv-x="581" 
d="M430 202h114q-12 -84 -67 -140t-139 -69v-92h-98v94q-90 17 -145 85.5t-55 166.5t55 166.5t145 85.5v94h98v-92q84 -13 139 -69t67 -140h-114q-12 53 -48 83.5t-88 30.5q-63 0 -102.5 -44t-39.5 -115t39.5 -114.5t102.5 -43.5q52 0 88 30t48 83z" />
    <glyph glyph-name="sterling" unicode="&#xa3;" horiz-adv-x="599" 
d="M562 0h-521v98h72v144h-72v94h72v107q0 94 58.5 150.5t156.5 56.5q101 0 164 -59.5t63 -153.5h-112q-3 52 -32.5 82.5t-76.5 30.5t-77 -31.5t-30 -81.5v-101h235v-94h-235v-144h335v-98z" />
    <glyph glyph-name="currency" unicode="&#xa4;" horiz-adv-x="616" 
d="M92 -9l-63 68l84 84q-12 25 -18 51t-6 54q0 29 6.5 55.5t18.5 49.5l-85 85l63 67l83 -82q27 20 61 30t72 10t72 -10t61 -30l83 82l63 -67l-85 -85q12 -23 18.5 -49.5t6.5 -55.5q0 -28 -6 -54t-18 -51l84 -84l-63 -68l-82 82q-28 -20 -62.5 -30t-71.5 -10t-71.5 10
t-62.5 30zM308 125q52 0 85.5 34.5t33.5 88.5q0 55 -33 89.5t-86 34.5q-52 0 -85.5 -35t-33.5 -89t33.5 -88.5t85.5 -34.5z" />
    <glyph glyph-name="yen" unicode="&#xa5;" horiz-adv-x="656" 
d="M271 159h-193v80h193v16l-33 49h-160v80h106l-172 256h133l186 -283l187 283h126l-172 -256h104v-80h-158l-33 -49v-16h191v-80h-191v-159h-114v159z" />
    <glyph glyph-name="brokenbar" unicode="&#xa6;" horiz-adv-x="305" 
d="M210 690v-349h-114v349h114zM210 -134h-114v349h114v-349z" />
    <glyph glyph-name="section" unicode="&#xa7;" horiz-adv-x="571" 
d="M433 150q42 -19 63 -51t21 -76q0 -76 -60.5 -121.5t-160.5 -45.5h-205v88h205q54 0 82.5 19t28.5 54q0 34 -25.5 53t-80.5 27l-57 7q-89 12 -135 53.5t-46 110.5q0 41 20.5 72.5t59.5 51.5q-40 21 -60 53.5t-20 76.5q0 75 58 119t156 44h192v-87h-192q-50 0 -77.5 -19
t-27.5 -54t24.5 -54t78.5 -27l57 -8q92 -11 138 -51t46 -108q0 -41 -21.5 -73.5t-61.5 -53.5zM166 271q0 -38 34 -59t95 -21q52 0 81.5 21t29.5 58q0 39 -33.5 60t-95.5 21q-53 0 -82 -21t-29 -59z" />
    <glyph glyph-name="dieresis" unicode="&#xa8;" horiz-adv-x="500" 
d="M110 577v107h103v-107h-103zM287 577v107h103v-107h-103z" />
    <glyph glyph-name="copyright" unicode="&#xa9;" horiz-adv-x="865" 
d="M818 319q0 -167 -108 -272.5t-277 -105.5q-170 0 -278 106t-108 272q0 167 108.5 273t277.5 106t277 -106t108 -273zM84 319q0 -151 97.5 -246.5t251.5 -95.5t251 95t97 247t-97 247.5t-251 95.5q-153 0 -251 -96t-98 -247zM571 270h114q-14 -97 -82.5 -155t-168.5 -58
q-111 0 -182.5 72.5t-71.5 185.5t71.5 185.5t182.5 72.5q100 0 168.5 -58t82.5 -155h-114q-12 53 -48.5 83.5t-88.5 30.5q-63 0 -102.5 -44t-39.5 -115t39.5 -115t102.5 -44q52 0 88.5 30.5t48.5 83.5z" />
    <glyph glyph-name="ordfeminine" unicode="&#xaa;" horiz-adv-x="487" 
d="M430 637v-381h-71l-15 47q-22 -27 -53 -41t-67 -14q-80 0 -134.5 56.5t-54.5 142.5q0 85 54.5 141t134.5 56q35 0 66 -14t54 -40l15 47h71zM236 335q47 0 76 31t29 81q0 49 -29.5 80.5t-75.5 31.5t-75 -31t-29 -81t29 -81t75 -31z" />
    <glyph glyph-name="guillemotleft" unicode="&#xab;" horiz-adv-x="545" 
d="M157 0l-132 247l132 247h114l-132 -247l132 -247h-114zM402 0l-132 247l132 247h114l-132 -247l132 -247h-114z" />
    <glyph glyph-name="logicalnot" unicode="&#xac;" 
d="M418 234h-350v94h444v-269h-94v175z" />
    <glyph glyph-name="uni00AD" unicode="&#xad;" horiz-adv-x="0" 
 />
    <glyph glyph-name="registered" unicode="&#xae;" horiz-adv-x="554" 
d="M515 455q0 -105 -66.5 -171.5t-171.5 -66.5t-172 66.5t-67 171.5t67 172t172 67t171.5 -67t66.5 -172zM75 455q0 -89 56.5 -145.5t145.5 -56.5t145 56t56 146t-56 146.5t-145 56.5t-145.5 -56.5t-56.5 -146.5zM411 316h-83l-46 85h-48v-85h-74v280h129q54 0 84 -26
t30 -72q0 -28 -13 -50t-37 -34zM329 497q0 15 -10 23.5t-28 8.5h-57v-63h57q19 0 28.5 8t9.5 23z" />
    <glyph glyph-name="macron" unicode="&#xaf;" horiz-adv-x="500" 
d="M113 652h274v-79h-274v79z" />
    <glyph glyph-name="degree" unicode="&#xb0;" horiz-adv-x="503" 
d="M450 455q0 -85 -55.5 -139.5t-142.5 -54.5t-143 54.5t-56 139.5t56 140t143 55t142.5 -54.5t55.5 -140.5zM150 455q0 -47 28.5 -76.5t73.5 -29.5t73.5 29.5t28.5 76.5t-28.5 77t-73.5 30t-73.5 -30t-28.5 -77z" />
    <glyph glyph-name="plusminus" unicode="&#xb1;" 
d="M243 263h-175v94h175v146h94v-146h175v-94h-175v-145h-94v145zM512 0h-444v94h444v-94z" />
    <glyph glyph-name="twosuperior" unicode="&#xb2;" horiz-adv-x="331" 
d="M303 375h-275v76l131 108q30 25 40 41t10 37q0 22 -14 36.5t-35 14.5t-34.5 -14t-15.5 -37h-86q0 56 40 92t102 36q60 0 96.5 -34t36.5 -89q0 -37 -20 -69.5t-67 -70.5l-62 -51h153v-76z" />
    <glyph glyph-name="threesuperior" unicode="&#xb3;" horiz-adv-x="324" 
d="M247 572q26 -13 39.5 -36.5t13.5 -53.5q0 -48 -39.5 -80.5t-98.5 -32.5q-60 0 -100 33t-44 85h85q5 -21 20 -32.5t38 -11.5q25 0 39.5 12t14.5 33t-14 34.5t-36 13.5h-72v69h67q20 0 33 11.5t13 29.5q0 21 -13 33t-35 12t-35.5 -11.5t-17.5 -32.5h-85q4 52 42.5 85
t95.5 33q59 0 96 -31.5t37 -82.5q0 -26 -11.5 -46.5t-32.5 -32.5z" />
    <glyph glyph-name="acute" unicode="&#xb4;" horiz-adv-x="500" 
d="M202 540l100 150h114l-118 -150h-96z" />
    <glyph glyph-name="mu.math" unicode="&#xb5;" horiz-adv-x="622" 
d="M182 38v-228h-111v684h111v-281q0 -58 32 -91t87 -33t86.5 33t31.5 91v281h112v-348q0 -29 12 -43t38 -14h10v-99h-10q-53 0 -88.5 17t-53.5 50q-22 -32 -58 -49.5t-80 -17.5q-38 0 -68 12t-51 36z" />
    <glyph glyph-name="paragraph" unicode="&#xb6;" horiz-adv-x="650" 
d="M627 640v-94h-77v-491q0 -92 -51 -140.5t-148 -48.5h-103v102h84q57 0 80.5 21.5t23.5 73.5v483h-55v-515h-86v183h-6q-121 0 -187 55.5t-66 157.5t66 157.5t187 55.5h338z" />
    <glyph glyph-name="periodcentered" unicode="&#xb7;" horiz-adv-x="160" 
d="M23 284v114h114v-114h-114z" />
    <glyph glyph-name="cedilla" unicode="&#xb8;" horiz-adv-x="500" 
d="M214 -28l72 -11q49 -8 72 -27t23 -52q0 -36 -35 -59t-91 -23q-60 0 -97 25.5t-39 67.5h86q1 -18 14 -29t35 -11q19 0 29.5 7.5t10.5 21.5t-10.5 22t-33.5 12l-36 6v50z" />
    <glyph glyph-name="onesuperior" unicode="&#xb9;" horiz-adv-x="222" 
d="M180 759v-384h-88v302h-76l25 82h139z" />
    <glyph glyph-name="ordmasculine" unicode="&#xba;" horiz-adv-x="474" 
d="M237 644q89 0 145.5 -55t56.5 -142q0 -88 -57 -143.5t-145 -55.5t-145 55.5t-57 143.5q0 87 56.5 142t145.5 55zM237 335q48 0 77 30.5t29 81.5q0 50 -29.5 81t-76.5 31t-76 -31t-29 -81q0 -51 29 -81.5t76 -30.5z" />
    <glyph glyph-name="guillemotright" unicode="&#xbb;" horiz-adv-x="545" 
d="M388 494l133 -247l-133 -247h-114l133 247l-133 247h114zM143 494l133 -247l-133 -247h-114l133 247l-133 247h114z" />
    <glyph glyph-name="onequarter" unicode="&#xbc;" horiz-adv-x="731" 
d="M180 640v-384h-88v302h-76l25 82h139zM217 0h-101l304 640h101zM657 0h-85v75h-182v74l174 235h93v-235h59v-74h-59v-75zM575 281l-98 -132h98v132z" />
    <glyph glyph-name="onehalf" unicode="&#xbd;" horiz-adv-x="745" 
d="M180 640v-384h-88v302h-76l25 82h139zM217 0h-101l304 640h101zM717 0h-275v76l131 108q30 25 40 41t10 37q0 22 -14 36.5t-35 14.5t-34.5 -14t-15.5 -37h-86q0 56 40 92t102 36q60 0 96.5 -34t36.5 -89q0 -37 -20 -69.5t-67 -70.5l-62 -51h153v-76z" />
    <glyph glyph-name="threequarters" unicode="&#xbe;" horiz-adv-x="832" 
d="M247 453q26 -13 39.5 -36.5t13.5 -53.5q0 -48 -39.5 -80.5t-98.5 -32.5q-60 0 -100 33t-44 85h85q5 -21 20 -32.5t38 -11.5q25 0 39.5 12t14.5 33t-14 34.5t-36 13.5h-72v69h67q20 0 33 11.5t13 29.5q0 21 -13 33t-35 12t-35.5 -11.5t-17.5 -32.5h-85q4 52 42.5 85
t95.5 33q59 0 96 -31.5t37 -82.5q0 -26 -11.5 -46.5t-32.5 -32.5zM319 0h-101l304 640h101zM759 0h-85v75h-182v74l174 235h93v-235h59v-74h-59v-75zM677 281l-98 -132h98v132z" />
    <glyph glyph-name="questiondown" unicode="&#xbf;" horiz-adv-x="489" 
d="M319 496v-121h-125v121h125zM18 48q0 78 45.5 131.5t144.5 90.5l111 39v-104l-78 -29q-57 -24 -82.5 -53.5t-25.5 -71.5q0 -49 30 -77t81 -28q53 0 85 30t35 83h112q-1 -94 -65 -153.5t-168 -59.5q-101 0 -163 55.5t-62 146.5z" />
    <glyph glyph-name="Agrave" unicode="&#xc0;" horiz-adv-x="711" 
d="M296 640h119l277 -640h-124l-65 155h-300l-65 -155h-119zM353 509l-107 -252h214zM190 840h114l100 -150h-96z" />
    <glyph glyph-name="Aacute" unicode="&#xc1;" horiz-adv-x="711" 
d="M296 640h119l277 -640h-124l-65 155h-300l-65 -155h-119zM353 509l-107 -252h214zM308 690l100 150h114l-118 -150h-96z" />
    <glyph glyph-name="Acircumflex" unicode="&#xc2;" horiz-adv-x="711" 
d="M296 640h119l277 -640h-124l-65 155h-300l-65 -155h-119zM353 509l-107 -252h214zM514 690h-93l-65 86l-66 -86h-93l106 150h105z" />
    <glyph glyph-name="Atilde" unicode="&#xc3;" horiz-adv-x="711" 
d="M296 640h119l277 -640h-124l-65 155h-300l-65 -155h-119zM353 509l-107 -252h214zM291 834q22 0 41.5 -9.5t47.5 -36.5q14 -14 20.5 -18t12.5 -4q12 0 17.5 14t5.5 45h71q0 -65 -21.5 -97.5t-65.5 -32.5q-22 0 -41 9t-46 36q-15 15 -22 19t-13 4q-12 0 -17.5 -14
t-5.5 -45h-71q0 65 21.5 97.5t65.5 32.5z" />
    <glyph glyph-name="Adieresis" unicode="&#xc4;" horiz-adv-x="711" 
d="M296 640h119l277 -640h-124l-65 155h-300l-65 -155h-119zM353 509l-107 -252h214zM216 727v107h103v-107h-103zM393 727v107h103v-107h-103z" />
    <glyph glyph-name="Aring" unicode="&#xc5;" horiz-adv-x="711" 
d="M356 796q48 0 79 -29.5t31 -75.5q0 -25 -10 -46t-28 -35l264 -610h-124l-65 155h-300l-65 -155h-119l264 610q-18 15 -27.5 35.5t-9.5 45.5q0 46 31 75.5t79 29.5zM356 640q24 0 37.5 13.5t13.5 37.5t-13.5 37.5t-37.5 13.5t-37.5 -13.5t-13.5 -37.5t13.5 -37.5
t37.5 -13.5zM353 509l-107 -252h214z" />
    <glyph glyph-name="AE" unicode="&#xc6;" horiz-adv-x="949" 
d="M15 0l387 640h503v-103h-336v-163h306v-100h-306v-171h336v-103h-449v155h-226l-95 -155h-120zM456 526l-164 -269h164v269z" />
    <glyph glyph-name="Ccedilla" unicode="&#xc7;" horiz-adv-x="728" 
d="M571 258h119q-20 -120 -108 -194t-212 -74q-141 0 -233.5 93.5t-92.5 236.5t92.5 236.5t233.5 93.5q124 0 212 -73.5t108 -194.5h-119q-18 77 -71 120.5t-130 43.5q-93 0 -151 -62t-58 -164q0 -101 58 -163t151 -62q78 0 131 43t70 120zM340 -27l72 -11q49 -8 72 -27
t23 -52q0 -36 -35 -59t-91 -23q-60 0 -97 25.5t-39 67.5h86q1 -18 14 -29t35 -11q19 0 29.5 7.5t10.5 21.5t-10.5 22t-33.5 12l-36 6v50z" />
    <glyph glyph-name="Egrave" unicode="&#xc8;" horiz-adv-x="578" 
d="M84 0v640h449v-103h-335v-163h305v-100h-305v-171h335v-103h-449zM146 840h114l100 -150h-96z" />
    <glyph glyph-name="Eacute" unicode="&#xc9;" horiz-adv-x="578" 
d="M84 0v640h449v-103h-335v-163h305v-100h-305v-171h335v-103h-449zM264 690l100 150h114l-118 -150h-96z" />
    <glyph glyph-name="Ecircumflex" unicode="&#xca;" horiz-adv-x="578" 
d="M84 0v640h449v-103h-335v-163h305v-100h-305v-171h335v-103h-449zM470 690h-93l-65 86l-66 -86h-93l106 150h105z" />
    <glyph glyph-name="Edieresis" unicode="&#xcb;" horiz-adv-x="578" 
d="M84 0v640h449v-103h-335v-163h305v-100h-305v-171h335v-103h-449zM172 727v107h103v-107h-103zM349 727v107h103v-107h-103z" />
    <glyph glyph-name="Igrave" unicode="&#xcc;" horiz-adv-x="282" 
d="M84 0v640h114v-640h-114zM-24 840h114l100 -150h-96z" />
    <glyph glyph-name="Iacute" unicode="&#xcd;" horiz-adv-x="282" 
d="M84 0v640h114v-640h-114zM94 690l100 150h114l-118 -150h-96z" />
    <glyph glyph-name="Icircumflex" unicode="&#xce;" horiz-adv-x="282" 
d="M84 0v640h114v-640h-114zM300 690h-93l-65 86l-66 -86h-93l106 150h105z" />
    <glyph glyph-name="Idieresis" unicode="&#xcf;" horiz-adv-x="282" 
d="M84 0v640h114v-640h-114zM2 727v107h103v-107h-103zM179 727v107h103v-107h-103z" />
    <glyph glyph-name="Eth" unicode="&#xd0;" horiz-adv-x="734" 
d="M103 275h-78v94h78v271h258q144 0 237 -90.5t93 -229.5t-93 -229.5t-237 -90.5h-258v275zM379 369v-94h-162v-170h144q95 0 154.5 59t59.5 156t-59.5 156t-154.5 59h-144v-166h162z" />
    <glyph glyph-name="Ntilde" unicode="&#xd1;" horiz-adv-x="747" 
d="M84 0v640h110l359 -461v461h110v-640h-110l-359 460v-460h-110zM309 834q22 0 41.5 -9.5t47.5 -36.5q14 -14 20.5 -18t12.5 -4q12 0 17.5 14t5.5 45h71q0 -65 -21.5 -97.5t-65.5 -32.5q-22 0 -41 9t-46 36q-15 15 -22 19t-13 4q-12 0 -17.5 -14t-5.5 -45h-71
q0 65 21.5 97.5t65.5 32.5z" />
    <glyph glyph-name="Ograve" unicode="&#xd2;" horiz-adv-x="748" 
d="M374 650q143 0 236.5 -93.5t93.5 -236.5q0 -144 -93.5 -237t-236.5 -93t-236.5 93t-93.5 237q0 143 93.5 236.5t236.5 93.5zM374 95q95 0 154 62t59 163t-59 163.5t-154 62.5t-154 -62.5t-59 -163.5t59 -163t154 -62zM209 840h114l100 -150h-96z" />
    <glyph glyph-name="Oacute" unicode="&#xd3;" horiz-adv-x="748" 
d="M374 650q143 0 236.5 -93.5t93.5 -236.5q0 -144 -93.5 -237t-236.5 -93t-236.5 93t-93.5 237q0 143 93.5 236.5t236.5 93.5zM374 95q95 0 154 62t59 163t-59 163.5t-154 62.5t-154 -62.5t-59 -163.5t59 -163t154 -62zM327 690l100 150h114l-118 -150h-96z" />
    <glyph glyph-name="Ocircumflex" unicode="&#xd4;" horiz-adv-x="748" 
d="M374 650q143 0 236.5 -93.5t93.5 -236.5q0 -144 -93.5 -237t-236.5 -93t-236.5 93t-93.5 237q0 143 93.5 236.5t236.5 93.5zM374 95q95 0 154 62t59 163t-59 163.5t-154 62.5t-154 -62.5t-59 -163.5t59 -163t154 -62zM533 690h-93l-65 86l-66 -86h-93l106 150h105z" />
    <glyph glyph-name="Otilde" unicode="&#xd5;" horiz-adv-x="748" 
d="M374 650q143 0 236.5 -93.5t93.5 -236.5q0 -144 -93.5 -237t-236.5 -93t-236.5 93t-93.5 237q0 143 93.5 236.5t236.5 93.5zM374 95q95 0 154 62t59 163t-59 163.5t-154 62.5t-154 -62.5t-59 -163.5t59 -163t154 -62zM310 834q22 0 41.5 -9.5t47.5 -36.5q14 -14 20.5 -18
t12.5 -4q12 0 17.5 14t5.5 45h71q0 -65 -21.5 -97.5t-65.5 -32.5q-22 0 -41 9t-46 36q-15 15 -22 19t-13 4q-12 0 -17.5 -14t-5.5 -45h-71q0 65 21.5 97.5t65.5 32.5z" />
    <glyph glyph-name="Odieresis" unicode="&#xd6;" horiz-adv-x="748" 
d="M374 650q143 0 236.5 -93.5t93.5 -236.5q0 -144 -93.5 -237t-236.5 -93t-236.5 93t-93.5 237q0 143 93.5 236.5t236.5 93.5zM374 95q95 0 154 62t59 163t-59 163.5t-154 62.5t-154 -62.5t-59 -163.5t59 -163t154 -62zM235 727v107h103v-107h-103zM412 727v107h103v-107
h-103z" />
    <glyph glyph-name="multiply" unicode="&#xd7;" 
d="M290 214l-145 -145l-67 67l145 145l-145 145l67 67l145 -145l145 145l67 -67l-145 -145l145 -145l-67 -67z" />
    <glyph glyph-name="Oslash" unicode="&#xd8;" horiz-adv-x="759" 
d="M710 320q0 -144 -93.5 -237t-236.5 -93q-50 0 -95.5 12t-84.5 36l-32 -38h-118l81 96q-40 44 -60.5 101.5t-20.5 122.5q0 143 93.5 236.5t236.5 93.5q50 0 95.5 -12.5t83.5 -35.5l33 38h118l-81 -96q39 -44 60 -101.5t21 -122.5zM380 549q-96 0 -156 -63t-60 -166
q0 -40 10 -75t29 -64l288 340q-25 14 -52.5 21t-58.5 7zM380 92q96 0 155.5 62.5t59.5 165.5q0 40 -9.5 75t-28.5 64l-288 -339q24 -14 52.5 -21t58.5 -7z" />
    <glyph glyph-name="Ugrave" unicode="&#xd9;" horiz-adv-x="706" 
d="M353 -10q-136 0 -210 73t-74 207v370h114v-366q0 -88 43 -133.5t127 -45.5q83 0 126.5 45.5t43.5 133.5v366h114v-370q0 -134 -74 -207t-210 -73zM188 840h114l100 -150h-96z" />
    <glyph glyph-name="Uacute" unicode="&#xda;" horiz-adv-x="706" 
d="M353 -10q-136 0 -210 73t-74 207v370h114v-366q0 -88 43 -133.5t127 -45.5q83 0 126.5 45.5t43.5 133.5v366h114v-370q0 -134 -74 -207t-210 -73zM306 690l100 150h114l-118 -150h-96z" />
    <glyph glyph-name="Ucircumflex" unicode="&#xdb;" horiz-adv-x="706" 
d="M353 -10q-136 0 -210 73t-74 207v370h114v-366q0 -88 43 -133.5t127 -45.5q83 0 126.5 45.5t43.5 133.5v366h114v-370q0 -134 -74 -207t-210 -73zM512 690h-93l-65 86l-66 -86h-93l106 150h105z" />
    <glyph glyph-name="Udieresis" unicode="&#xdc;" horiz-adv-x="706" 
d="M353 -10q-136 0 -210 73t-74 207v370h114v-366q0 -88 43 -133.5t127 -45.5q83 0 126.5 45.5t43.5 133.5v366h114v-370q0 -134 -74 -207t-210 -73zM214 727v107h103v-107h-103zM391 727v107h103v-107h-103z" />
    <glyph glyph-name="Yacute" unicode="&#xdd;" horiz-adv-x="648" 
d="M514 640h126l-260 -385v-255h-114v255l-258 385h133l186 -283zM277 690l100 150h114l-118 -150h-96z" />
    <glyph glyph-name="Thorn" unicode="&#xde;" horiz-adv-x="634" 
d="M84 0v640h114v-105h147q121 0 187 -55.5t66 -157.5t-66 -157.5t-187 -55.5h-147v-109h-114zM482 322q0 55 -34.5 83.5t-99.5 28.5h-150v-224h150q65 0 99.5 29t34.5 83z" />
    <glyph glyph-name="germandbls" unicode="&#xdf;" horiz-adv-x="634" 
d="M91 401h-73v93h73q3 97 64 151.5t168 54.5q103 0 165 -51t62 -135q0 -51 -20 -89t-59 -60q63 -21 95 -64.5t32 -108.5q0 -91 -61 -141.5t-171 -50.5h-87v96h78q62 0 95.5 27.5t33.5 78.5t-34.5 79.5t-96.5 28.5h-76v91h60q46 0 72.5 27.5t26.5 73.5q0 48 -30 75t-85 27
q-58 0 -89.5 -31.5t-31.5 -87.5v-485h-111v401z" />
    <glyph glyph-name="agrave" unicode="&#xe0;" horiz-adv-x="627" 
d="M553 494v-494h-80l-20 64q-31 -36 -74.5 -55t-93.5 -19q-104 0 -175 73t-71 184t71 184t175 73q50 0 93.5 -19t74.5 -55l20 64h80zM301 89q65 0 107 44t42 114t-42 114.5t-107 44.5q-66 0 -107.5 -44t-41.5 -115t41.5 -114.5t107.5 -43.5zM133 691h114l100 -150h-96z" />
    <glyph glyph-name="aacute" unicode="&#xe1;" horiz-adv-x="627" 
d="M553 494v-494h-80l-20 64q-31 -36 -74.5 -55t-93.5 -19q-104 0 -175 73t-71 184t71 184t175 73q50 0 93.5 -19t74.5 -55l20 64h80zM301 89q65 0 107 44t42 114t-42 114.5t-107 44.5q-66 0 -107.5 -44t-41.5 -115t41.5 -114.5t107.5 -43.5zM251 541l100 150h114l-118 -150
h-96z" />
    <glyph glyph-name="acircumflex" unicode="&#xe2;" horiz-adv-x="627" 
d="M553 494v-494h-80l-20 64q-31 -36 -74.5 -55t-93.5 -19q-104 0 -175 73t-71 184t71 184t175 73q50 0 93.5 -19t74.5 -55l20 64h80zM301 89q65 0 107 44t42 114t-42 114.5t-107 44.5q-66 0 -107.5 -44t-41.5 -115t41.5 -114.5t107.5 -43.5zM457 541h-93l-65 86l-66 -86
h-93l106 150h105z" />
    <glyph glyph-name="atilde" unicode="&#xe3;" horiz-adv-x="627" 
d="M553 494v-494h-80l-20 64q-31 -36 -74.5 -55t-93.5 -19q-104 0 -175 73t-71 184t71 184t175 73q50 0 93.5 -19t74.5 -55l20 64h80zM301 89q65 0 107 44t42 114t-42 114.5t-107 44.5q-66 0 -107.5 -44t-41.5 -115t41.5 -114.5t107.5 -43.5zM234 685q22 0 41.5 -9.5
t47.5 -36.5q14 -14 20.5 -18t12.5 -4q12 0 17.5 14t5.5 45h71q0 -65 -21.5 -97.5t-65.5 -32.5q-22 0 -41 9t-46 36q-15 15 -22 19t-13 4q-12 0 -17.5 -14t-5.5 -45h-71q0 65 21.5 97.5t65.5 32.5z" />
    <glyph glyph-name="adieresis" unicode="&#xe4;" horiz-adv-x="627" 
d="M553 494v-494h-80l-20 64q-31 -36 -74.5 -55t-93.5 -19q-104 0 -175 73t-71 184t71 184t175 73q50 0 93.5 -19t74.5 -55l20 64h80zM301 89q65 0 107 44t42 114t-42 114.5t-107 44.5q-66 0 -107.5 -44t-41.5 -115t41.5 -114.5t107.5 -43.5zM159 578v107h103v-107h-103z
M336 578v107h103v-107h-103z" />
    <glyph glyph-name="aring" unicode="&#xe5;" horiz-adv-x="627" 
d="M553 494v-494h-80l-20 64q-31 -36 -74.5 -55t-93.5 -19q-104 0 -175 73t-71 184t71 184t175 73q50 0 93.5 -19t74.5 -55l20 64h80zM301 89q65 0 107 44t42 114t-42 114.5t-107 44.5q-66 0 -107.5 -44t-41.5 -115t41.5 -114.5t107.5 -43.5zM299 734q48 0 79 -29.5
t31 -75.5t-31 -75.5t-79 -29.5t-79 29.5t-31 75.5t31 75.5t79 29.5zM299 578q24 0 37.5 13.5t13.5 37.5t-13.5 37.5t-37.5 13.5t-37.5 -13.5t-13.5 -37.5t13.5 -37.5t37.5 -13.5z" />
    <glyph glyph-name="ae" unicode="&#xe6;" horiz-adv-x="927" 
d="M773 166h110q-13 -78 -78 -127t-157 -49q-67 0 -121 27.5t-86 77.5q-28 -50 -81.5 -77.5t-122.5 -27.5q-90 0 -142 41.5t-52 112.5q0 72 52.5 108.5t156.5 36.5h141v1q0 54 -33.5 86t-91.5 32q-45 0 -77 -19.5t-43 -54.5h-104q17 79 76 124.5t147 45.5q65 0 112.5 -25
t74.5 -73q30 48 78.5 73t111.5 25q107 0 175 -69.5t68 -179.5q0 -6 -0.5 -16t-1.5 -21h-389q7 -64 47 -99t103 -35q49 0 82.5 22t44.5 60zM637 412q-57 0 -93 -30t-46 -87h280q-6 54 -44.5 85.5t-96.5 31.5zM250 75q60 0 101.5 33t41.5 83v19h-129q-57 0 -86.5 -16
t-29.5 -48q0 -33 28 -52t74 -19z" />
    <glyph glyph-name="ccedilla" unicode="&#xe7;" 
d="M430 202h114q-14 -97 -82.5 -154.5t-168.5 -57.5q-111 0 -182.5 72t-71.5 185t71.5 185t182.5 72q100 0 168.5 -57.5t82.5 -154.5h-114q-12 53 -48.5 83.5t-88.5 30.5q-63 0 -102 -44t-39 -115t39 -114.5t102 -43.5q52 0 88.5 30t48.5 83zM265 -28l72 -11q49 -8 72 -27
t23 -52q0 -36 -35 -59t-91 -23q-60 0 -97 25.5t-39 67.5h86q1 -18 14 -29t35 -11q19 0 29.5 7.5t10.5 21.5t-10.5 22t-33.5 12l-36 6v50z" />
    <glyph glyph-name="egrave" unicode="&#xe8;" horiz-adv-x="581" 
d="M427 166h111q-14 -79 -79 -127.5t-159 -48.5q-115 0 -187.5 72t-72.5 186t70.5 185t183.5 71q109 0 178 -69t69 -180q0 -6 -0.5 -16t-1.5 -21h-389q7 -64 47 -99t103 -35q49 0 82.5 22t44.5 60zM291 412q-57 0 -93 -30t-46 -87h280q-6 54 -44.5 85.5t-96.5 31.5zM128 690
h114l100 -150h-96z" />
    <glyph glyph-name="eacute" unicode="&#xe9;" horiz-adv-x="581" 
d="M427 166h111q-14 -79 -79 -127.5t-159 -48.5q-115 0 -187.5 72t-72.5 186t70.5 185t183.5 71q109 0 178 -69t69 -180q0 -6 -0.5 -16t-1.5 -21h-389q7 -64 47 -99t103 -35q49 0 82.5 22t44.5 60zM291 412q-57 0 -93 -30t-46 -87h280q-6 54 -44.5 85.5t-96.5 31.5zM246 540
l100 150h114l-118 -150h-96z" />
    <glyph glyph-name="ecircumflex" unicode="&#xea;" horiz-adv-x="581" 
d="M427 166h111q-14 -79 -79 -127.5t-159 -48.5q-115 0 -187.5 72t-72.5 186t70.5 185t183.5 71q109 0 178 -69t69 -180q0 -6 -0.5 -16t-1.5 -21h-389q7 -64 47 -99t103 -35q49 0 82.5 22t44.5 60zM291 412q-57 0 -93 -30t-46 -87h280q-6 54 -44.5 85.5t-96.5 31.5zM452 540
h-93l-65 86l-66 -86h-93l106 150h105z" />
    <glyph glyph-name="edieresis" unicode="&#xeb;" horiz-adv-x="581" 
d="M427 166h111q-14 -79 -79 -127.5t-159 -48.5q-115 0 -187.5 72t-72.5 186t70.5 185t183.5 71q109 0 178 -69t69 -180q0 -6 -0.5 -16t-1.5 -21h-389q7 -64 47 -99t103 -35q49 0 82.5 22t44.5 60zM291 412q-57 0 -93 -30t-46 -87h280q-6 54 -44.5 85.5t-96.5 31.5zM154 577
v107h103v-107h-103zM331 577v107h103v-107h-103z" />
    <glyph glyph-name="igrave" unicode="&#xec;" horiz-adv-x="259" 
d="M74 0v494h111v-494h-111zM-36 690h114l100 -150h-96z" />
    <glyph glyph-name="iacute" unicode="&#xed;" horiz-adv-x="259" 
d="M74 0v494h111v-494h-111zM82 540l100 150h114l-118 -150h-96z" />
    <glyph glyph-name="icircumflex" unicode="&#xee;" horiz-adv-x="259" 
d="M74 0v494h111v-494h-111zM288 540h-93l-65 86l-66 -86h-93l106 150h105z" />
    <glyph glyph-name="idieresis" unicode="&#xef;" horiz-adv-x="259" 
d="M74 0v494h111v-494h-111zM-10 577v107h103v-107h-103zM167 577v107h103v-107h-103z" />
    <glyph glyph-name="eth" unicode="&#xf0;" horiz-adv-x="592" 
d="M269 548l-152 -55v81l102 37l-63 79h123l35 -45l154 55v-81l-104 -37l90 -115q56 -73 77 -123t21 -110q0 -107 -72 -175.5t-186 -68.5q-111 0 -184 69.5t-73 175.5q0 103 67.5 168t176.5 65q16 0 30 -1.5t27 -5.5zM149 235q0 -66 39.5 -106t105.5 -40q67 0 106.5 39.5
t39.5 106.5q0 66 -40 105t-106 39t-105.5 -39t-39.5 -105z" />
    <glyph glyph-name="ntilde" unicode="&#xf1;" horiz-adv-x="606" 
d="M309 405q-57 0 -90.5 -34t-33.5 -91v-280h-111v494h80l19 -61q26 34 67.5 52.5t91.5 18.5q94 0 152.5 -57t58.5 -150v-297h-111v280q0 58 -33.5 91.5t-89.5 33.5zM247 684q22 0 41.5 -9.5t47.5 -36.5q14 -14 20.5 -18t12.5 -4q12 0 17.5 14t5.5 45h71q0 -65 -21.5 -97.5
t-65.5 -32.5q-22 0 -41 9t-46 36q-15 15 -22 19t-13 4q-12 0 -17.5 -14t-5.5 -45h-71q0 65 21.5 97.5t65.5 32.5z" />
    <glyph glyph-name="ograve" unicode="&#xf2;" horiz-adv-x="603" 
d="M301 504q115 0 189 -72t74 -185t-74 -185t-189 -72t-188.5 72t-73.5 185t73.5 185t188.5 72zM301 89q67 0 109 43.5t42 114.5t-42 115t-109 44t-108.5 -44t-41.5 -115t41.5 -114.5t108.5 -43.5zM135 690h114l100 -150h-96z" />
    <glyph glyph-name="oacute" unicode="&#xf3;" horiz-adv-x="603" 
d="M301 504q115 0 189 -72t74 -185t-74 -185t-189 -72t-188.5 72t-73.5 185t73.5 185t188.5 72zM301 89q67 0 109 43.5t42 114.5t-42 115t-109 44t-108.5 -44t-41.5 -115t41.5 -114.5t108.5 -43.5zM253 540l100 150h114l-118 -150h-96z" />
    <glyph glyph-name="ocircumflex" unicode="&#xf4;" horiz-adv-x="603" 
d="M301 504q115 0 189 -72t74 -185t-74 -185t-189 -72t-188.5 72t-73.5 185t73.5 185t188.5 72zM301 89q67 0 109 43.5t42 114.5t-42 115t-109 44t-108.5 -44t-41.5 -115t41.5 -114.5t108.5 -43.5zM460 540h-93l-65 86l-66 -86h-93l106 150h105z" />
    <glyph glyph-name="otilde" unicode="&#xf5;" horiz-adv-x="603" 
d="M301 504q115 0 189 -72t74 -185t-74 -185t-189 -72t-188.5 72t-73.5 185t73.5 185t188.5 72zM301 89q67 0 109 43.5t42 114.5t-42 115t-109 44t-108.5 -44t-41.5 -115t41.5 -114.5t108.5 -43.5zM237 684q22 0 41.5 -9.5t47.5 -36.5q14 -14 20.5 -18t12.5 -4q12 0 17.5 14
t5.5 45h71q0 -65 -21.5 -97.5t-65.5 -32.5q-22 0 -41 9t-46 36q-15 15 -22 19t-13 4q-12 0 -17.5 -14t-5.5 -45h-71q0 65 21.5 97.5t65.5 32.5z" />
    <glyph glyph-name="odieresis" unicode="&#xf6;" horiz-adv-x="603" 
d="M301 504q115 0 189 -72t74 -185t-74 -185t-189 -72t-188.5 72t-73.5 185t73.5 185t188.5 72zM301 89q67 0 109 43.5t42 114.5t-42 115t-109 44t-108.5 -44t-41.5 -115t41.5 -114.5t108.5 -43.5zM161 577v107h103v-107h-103zM338 577v107h103v-107h-103z" />
    <glyph glyph-name="divide" unicode="&#xf7;" 
d="M228 396v121h125v-121h-125zM512 234h-444v94h444v-94zM228 45v121h125v-121h-125z" />
    <glyph glyph-name="oslash" unicode="&#xf8;" horiz-adv-x="616" 
d="M571 247q0 -113 -74 -185t-189 -72q-37 0 -71.5 8.5t-65.5 25.5l-20 -24h-105l63 74q-31 34 -47 78t-16 95q0 113 74 185t188 72q38 0 73 -8.5t65 -25.5l21 24h104l-63 -74q31 -34 47 -78t16 -95zM308 410q-67 0 -110 -46t-43 -117q0 -25 6 -48t18 -43l202 237
q-17 9 -35 13t-38 4zM308 86q67 0 110.5 45t43.5 116q0 25 -6 48t-18 43l-200 -236q16 -8 33.5 -12t36.5 -4z" />
    <glyph glyph-name="ugrave" unicode="&#xf9;" horiz-adv-x="581" 
d="M290 -10q-105 0 -167 57.5t-62 154.5v292h111v-281q0 -58 31.5 -91t86.5 -33q56 0 87.5 33t31.5 91v281h111v-292q0 -96 -63 -154t-167 -58zM124 690h114l100 -150h-96z" />
    <glyph glyph-name="uacute" unicode="&#xfa;" horiz-adv-x="581" 
d="M290 -10q-105 0 -167 57.5t-62 154.5v292h111v-281q0 -58 31.5 -91t86.5 -33q56 0 87.5 33t31.5 91v281h111v-292q0 -96 -63 -154t-167 -58zM242 540l100 150h114l-118 -150h-96z" />
    <glyph glyph-name="ucircumflex" unicode="&#xfb;" horiz-adv-x="581" 
d="M290 -10q-105 0 -167 57.5t-62 154.5v292h111v-281q0 -58 31.5 -91t86.5 -33q56 0 87.5 33t31.5 91v281h111v-292q0 -96 -63 -154t-167 -58zM449 540h-93l-65 86l-66 -86h-93l106 150h105z" />
    <glyph glyph-name="udieresis" unicode="&#xfc;" horiz-adv-x="581" 
d="M290 -10q-105 0 -167 57.5t-62 154.5v292h111v-281q0 -58 31.5 -91t86.5 -33q56 0 87.5 33t31.5 91v281h111v-292q0 -96 -63 -154t-167 -58zM150 577v107h103v-107h-103zM327 577v107h103v-107h-103z" />
    <glyph glyph-name="yacute" unicode="&#xfd;" horiz-adv-x="555" 
d="M235 -19l8 22h-36l-196 491h116l154 -394l150 394h112l-212 -544q-28 -76 -71.5 -108t-125.5 -32h-69v99h63q48 0 69.5 15.5t37.5 56.5zM230 540l100 150h114l-118 -150h-96z" />
    <glyph glyph-name="thorn" unicode="&#xfe;" horiz-adv-x="627" 
d="M74 -190v880h111v-251q29 32 69.5 48.5t86.5 16.5q105 0 176 -73t71 -184t-71 -184t-176 -73q-46 0 -86.5 16.5t-69.5 48.5v-245h-111zM326 405q-65 0 -107 -44t-42 -114t42 -114t107 -44q66 0 107.5 43.5t41.5 114.5t-41.5 114.5t-107.5 43.5z" />
    <glyph glyph-name="ydieresis" unicode="&#xff;" horiz-adv-x="555" 
d="M235 -19l8 22h-36l-196 491h116l154 -394l150 394h112l-212 -544q-28 -76 -71.5 -108t-125.5 -32h-69v99h63q48 0 69.5 15.5t37.5 56.5zM138 577v107h103v-107h-103zM315 577v107h103v-107h-103z" />
    <glyph glyph-name="Amacron" unicode="&#x100;" horiz-adv-x="711" 
d="M296 640h119l277 -640h-124l-65 155h-300l-65 -155h-119zM353 509l-107 -252h214zM219 802h274v-79h-274v79z" />
    <glyph glyph-name="amacron" unicode="&#x101;" horiz-adv-x="627" 
d="M553 494v-494h-80l-20 64q-31 -36 -74.5 -55t-93.5 -19q-104 0 -175 73t-71 184t71 184t175 73q50 0 93.5 -19t74.5 -55l20 64h80zM301 89q65 0 107 44t42 114t-42 114.5t-107 44.5q-66 0 -107.5 -44t-41.5 -115t41.5 -114.5t107.5 -43.5zM162 653h274v-79h-274v79z" />
    <glyph glyph-name="Abreve" unicode="&#x102;" horiz-adv-x="711" 
d="M296 640h119l277 -640h-124l-65 155h-300l-65 -155h-119zM353 509l-107 -252h214zM356 690q-67 0 -105.5 38.5t-38.5 108.5h79q0 -38 16 -56.5t49 -18.5t49 18.5t16 56.5h79q0 -70 -38.5 -108.5t-105.5 -38.5z" />
    <glyph glyph-name="abreve" unicode="&#x103;" horiz-adv-x="627" 
d="M553 494v-494h-80l-20 64q-31 -36 -74.5 -55t-93.5 -19q-104 0 -175 73t-71 184t71 184t175 73q50 0 93.5 -19t74.5 -55l20 64h80zM301 89q65 0 107 44t42 114t-42 114.5t-107 44.5q-66 0 -107.5 -44t-41.5 -115t41.5 -114.5t107.5 -43.5zM299 541q-67 0 -105.5 38.5
t-38.5 108.5h79q0 -38 16 -56.5t49 -18.5t49 18.5t16 56.5h79q0 -70 -38.5 -108.5t-105.5 -38.5z" />
    <glyph glyph-name="Aogonek" unicode="&#x104;" horiz-adv-x="711" 
d="M630 -120h62v-80h-86q-50 0 -78 21t-28 59q0 26 15.5 51t47.5 49l27 20h-22l-65 155h-300l-65 -155h-119l277 640h119l277 -640l-62 -51q-16 -13 -23.5 -24.5t-7.5 -22.5t8 -16.5t23 -5.5zM353 509l-107 -252h214z" />
    <glyph glyph-name="aogonek" unicode="&#x105;" horiz-adv-x="627" 
d="M491 -120h62v-80h-86q-50 0 -78 21t-28 59q0 26 15.5 51t47.5 49l45 33l-16 51q-31 -36 -74.5 -55t-93.5 -19q-104 0 -175 73t-71 184t71 184t175 73q50 0 93.5 -19t74.5 -55l20 64h80v-494l-62 -51q-16 -13 -23.5 -24.5t-7.5 -22.5t8 -16.5t23 -5.5zM301 89q65 0 107 44
t42 114t-42 114.5t-107 44.5q-66 0 -107.5 -44t-41.5 -115t41.5 -114.5t107.5 -43.5z" />
    <glyph glyph-name="Cacute" unicode="&#x106;" horiz-adv-x="728" 
d="M571 258h119q-20 -120 -108 -194t-212 -74q-141 0 -233.5 93.5t-92.5 236.5t92.5 236.5t233.5 93.5q124 0 212 -73.5t108 -194.5h-119q-18 77 -71 120.5t-130 43.5q-93 0 -151 -62t-58 -164q0 -101 58 -163t151 -62q78 0 131 43t70 120zM319 690l100 150h114l-118 -150
h-96z" />
    <glyph glyph-name="cacute" unicode="&#x107;" 
d="M430 202h114q-14 -97 -82.5 -154.5t-168.5 -57.5q-111 0 -182.5 72t-71.5 185t71.5 185t182.5 72q100 0 168.5 -57.5t82.5 -154.5h-114q-12 53 -48.5 83.5t-88.5 30.5q-63 0 -102 -44t-39 -115t39 -114.5t102 -43.5q52 0 88.5 30t48.5 83zM244 540l100 150h114l-118 -150
h-96z" />
    <glyph glyph-name="Ccircumflex" unicode="&#x108;" horiz-adv-x="728" 
d="M571 258h119q-20 -120 -108 -194t-212 -74q-141 0 -233.5 93.5t-92.5 236.5t92.5 236.5t233.5 93.5q124 0 212 -73.5t108 -194.5h-119q-18 77 -71 120.5t-130 43.5q-93 0 -151 -62t-58 -164q0 -101 58 -163t151 -62q78 0 131 43t70 120zM525 690h-93l-65 86l-66 -86h-93
l106 150h105z" />
    <glyph glyph-name="ccircumflex" unicode="&#x109;" 
d="M430 202h114q-14 -97 -82.5 -154.5t-168.5 -57.5q-111 0 -182.5 72t-71.5 185t71.5 185t182.5 72q100 0 168.5 -57.5t82.5 -154.5h-114q-12 53 -48.5 83.5t-88.5 30.5q-63 0 -102 -44t-39 -115t39 -114.5t102 -43.5q52 0 88.5 30t48.5 83zM451 540h-93l-65 86l-66 -86
h-93l106 150h105z" />
    <glyph glyph-name="Cdotaccent" unicode="&#x10a;" horiz-adv-x="728" 
d="M571 258h119q-20 -120 -108 -194t-212 -74q-141 0 -233.5 93.5t-92.5 236.5t92.5 236.5t233.5 93.5q124 0 212 -73.5t108 -194.5h-119q-18 77 -71 120.5t-130 43.5q-93 0 -151 -62t-58 -164q0 -101 58 -163t151 -62q78 0 131 43t70 120zM310 720v114h115v-114h-115z" />
    <glyph glyph-name="cdotaccent" unicode="&#x10b;" 
d="M430 202h114q-14 -97 -82.5 -154.5t-168.5 -57.5q-111 0 -182.5 72t-71.5 185t71.5 185t182.5 72q100 0 168.5 -57.5t82.5 -154.5h-114q-12 53 -48.5 83.5t-88.5 30.5q-63 0 -102 -44t-39 -115t39 -114.5t102 -43.5q52 0 88.5 30t48.5 83zM235 570v114h115v-114h-115z
" />
    <glyph glyph-name="Ccaron" unicode="&#x10c;" horiz-adv-x="728" 
d="M571 258h119q-20 -120 -108 -194t-212 -74q-141 0 -233.5 93.5t-92.5 236.5t92.5 236.5t233.5 93.5q124 0 212 -73.5t108 -194.5h-119q-18 77 -71 120.5t-130 43.5q-93 0 -151 -62t-58 -164q0 -101 58 -163t151 -62q78 0 131 43t70 120zM432 839h93l-106 -150h-105
l-106 150h93l66 -86z" />
    <glyph glyph-name="ccaron" unicode="&#x10d;" 
d="M430 202h114q-14 -97 -82.5 -154.5t-168.5 -57.5q-111 0 -182.5 72t-71.5 185t71.5 185t182.5 72q100 0 168.5 -57.5t82.5 -154.5h-114q-12 53 -48.5 83.5t-88.5 30.5q-63 0 -102 -44t-39 -115t39 -114.5t102 -43.5q52 0 88.5 30t48.5 83zM359 689h93l-106 -150h-105
l-106 150h93l66 -86z" />
    <glyph glyph-name="Dcaron" unicode="&#x10e;" horiz-adv-x="715" 
d="M84 0v640h258q144 0 237 -90.5t93 -229.5t-93 -229.5t-237 -90.5h-258zM556 320q0 97 -59.5 156t-154.5 59h-144v-430h144q95 0 154.5 59t59.5 156zM418 839h93l-106 -150h-105l-106 150h93l66 -86z" />
    <glyph glyph-name="dcaron" unicode="&#x10f;" horiz-adv-x="675" 
d="M553 690v-690h-80l-20 64q-31 -36 -74.5 -55t-93.5 -19q-104 0 -175 73t-71 184t71 184t175 73q47 0 87.5 -16.5t69.5 -48.5v251h111zM301 89q65 0 107 44t42 114t-42 114.5t-107 44.5q-66 0 -107.5 -44t-41.5 -115t41.5 -114.5t107.5 -43.5zM602 490v200h111l-28 -200
h-83z" />
    <glyph glyph-name="Dcroat" unicode="&#x110;" horiz-adv-x="734" 
d="M103 275h-78v94h78v271h258q144 0 237 -90.5t93 -229.5t-93 -229.5t-237 -90.5h-258v275zM379 369v-94h-162v-170h144q95 0 154.5 59t59.5 156t-59.5 156t-154.5 59h-144v-166h162z" />
    <glyph glyph-name="dcroat" unicode="&#x111;" horiz-adv-x="627" 
d="M553 561v-561h-80l-20 64q-31 -36 -74.5 -55t-93.5 -19q-104 0 -175 73t-71 184t71 184t175 73q47 0 87.5 -16.5t69.5 -48.5v122h-205v79h205v50h111v-50h82v-79h-82zM301 89q65 0 107 44t42 114t-42 114.5t-107 44.5q-66 0 -107.5 -44t-41.5 -115t41.5 -114.5
t107.5 -43.5z" />
    <glyph glyph-name="Emacron" unicode="&#x112;" horiz-adv-x="578" 
d="M84 0v640h449v-103h-335v-163h305v-100h-305v-171h335v-103h-449zM175 802h274v-79h-274v79z" />
    <glyph glyph-name="emacron" unicode="&#x113;" horiz-adv-x="581" 
d="M427 166h111q-14 -79 -79 -127.5t-159 -48.5q-115 0 -187.5 72t-72.5 186t70.5 185t183.5 71q109 0 178 -69t69 -180q0 -6 -0.5 -16t-1.5 -21h-389q7 -64 47 -99t103 -35q49 0 82.5 22t44.5 60zM291 412q-57 0 -93 -30t-46 -87h280q-6 54 -44.5 85.5t-96.5 31.5zM157 652
h274v-79h-274v79z" />
    <glyph glyph-name="Ebreve" unicode="&#x114;" horiz-adv-x="578" 
d="M84 0v640h449v-103h-335v-163h305v-100h-305v-171h335v-103h-449zM312 690q-67 0 -105.5 38.5t-38.5 108.5h79q0 -38 16 -56.5t49 -18.5t49 18.5t16 56.5h79q0 -70 -38.5 -108.5t-105.5 -38.5z" />
    <glyph glyph-name="ebreve" unicode="&#x115;" horiz-adv-x="581" 
d="M427 166h111q-14 -79 -79 -127.5t-159 -48.5q-115 0 -187.5 72t-72.5 186t70.5 185t183.5 71q109 0 178 -69t69 -180q0 -6 -0.5 -16t-1.5 -21h-389q7 -64 47 -99t103 -35q49 0 82.5 22t44.5 60zM291 412q-57 0 -93 -30t-46 -87h280q-6 54 -44.5 85.5t-96.5 31.5zM294 540
q-67 0 -105.5 38.5t-38.5 108.5h79q0 -38 16 -56.5t49 -18.5t49 18.5t16 56.5h79q0 -70 -38.5 -108.5t-105.5 -38.5z" />
    <glyph glyph-name="Edotaccent" unicode="&#x116;" horiz-adv-x="578" 
d="M84 0v640h449v-103h-335v-163h305v-100h-305v-171h335v-103h-449zM255 720v114h115v-114h-115z" />
    <glyph glyph-name="edotaccent" unicode="&#x117;" horiz-adv-x="581" 
d="M427 166h111q-14 -79 -79 -127.5t-159 -48.5q-115 0 -187.5 72t-72.5 186t70.5 185t183.5 71q109 0 178 -69t69 -180q0 -6 -0.5 -16t-1.5 -21h-389q7 -64 47 -99t103 -35q49 0 82.5 22t44.5 60zM291 412q-57 0 -93 -30t-46 -87h280q-6 54 -44.5 85.5t-96.5 31.5zM237 570
v114h115v-114h-115z" />
    <glyph glyph-name="Eogonek" unicode="&#x118;" horiz-adv-x="578" 
d="M471 -120h62v-80h-86q-50 0 -78 21t-28 59q0 26 15.5 51t47.5 49l27 20h-347v640h449v-103h-335v-163h305v-100h-305v-171h335v-103l-62 -51q-16 -13 -23.5 -24.5t-7.5 -22.5t8 -16.5t23 -5.5z" />
    <glyph glyph-name="eogonek" unicode="&#x119;" horiz-adv-x="581" 
d="M427 166h111q-4 -23 -14 -50t-38 -80q-27 -54 -35.5 -78.5t-8.5 -42.5t10 -26.5t31 -8.5h55v-80h-82q-51 0 -79 22t-28 62q0 19 7.5 40.5t43.5 82.5q-22 -8 -47.5 -12.5t-52.5 -4.5q-115 0 -187.5 72t-72.5 186t70.5 185t183.5 71q109 0 178 -69t69 -180q0 -6 -0.5 -16
t-1.5 -21h-389q7 -64 47 -99t103 -35q49 0 82.5 22t44.5 60zM291 412q-57 0 -93 -30t-46 -87h280q-6 54 -44.5 85.5t-96.5 31.5z" />
    <glyph glyph-name="Ecaron" unicode="&#x11a;" horiz-adv-x="578" 
d="M84 0v640h449v-103h-335v-163h305v-100h-305v-171h335v-103h-449zM377 839h93l-106 -150h-105l-106 150h93l66 -86z" />
    <glyph glyph-name="ecaron" unicode="&#x11b;" horiz-adv-x="581" 
d="M427 166h111q-14 -79 -79 -127.5t-159 -48.5q-115 0 -187.5 72t-72.5 186t70.5 185t183.5 71q109 0 178 -69t69 -180q0 -6 -0.5 -16t-1.5 -21h-389q7 -64 47 -99t103 -35q49 0 82.5 22t44.5 60zM291 412q-57 0 -93 -30t-46 -87h280q-6 54 -44.5 85.5t-96.5 31.5zM359 689
h93l-106 -150h-105l-106 150h93l66 -86z" />
    <glyph glyph-name="Gcircumflex" unicode="&#x11c;" horiz-adv-x="739" 
d="M348 349h346q1 -17 1.5 -27t0.5 -18q0 -140 -90 -227t-232 -87q-143 0 -236.5 93.5t-93.5 236.5t93 236.5t235 93.5q119 0 203.5 -63t106.5 -165h-120q-17 56 -68 90t-121 34q-95 0 -153.5 -62t-58.5 -164q0 -103 59 -165t155 -62q86 0 139 42t62 117h-228v97zM528 690
h-93l-65 86l-66 -86h-93l106 150h105z" />
    <glyph glyph-name="gcircumflex" unicode="&#x11d;" horiz-adv-x="633" 
d="M460 431l23 63h76v-505q0 -95 -44.5 -137t-146.5 -42h-252l24 101h228q42 0 60.5 18t18.5 60v74q-32 -29 -72.5 -44t-86.5 -15q-105 0 -177 71t-72 179t72 179t177 71q51 0 95.5 -19t76.5 -54zM303 103q67 0 110 42t43 109t-43 109.5t-110 42.5t-109.5 -42.5
t-42.5 -109.5t42.5 -109t109.5 -42zM462 540h-93l-65 86l-66 -86h-93l106 150h105z" />
    <glyph glyph-name="Gbreve" unicode="&#x11e;" horiz-adv-x="739" 
d="M348 349h346q1 -17 1.5 -27t0.5 -18q0 -140 -90 -227t-232 -87q-143 0 -236.5 93.5t-93.5 236.5t93 236.5t235 93.5q119 0 203.5 -63t106.5 -165h-120q-17 56 -68 90t-121 34q-95 0 -153.5 -62t-58.5 -164q0 -103 59 -165t155 -62q86 0 139 42t62 117h-228v97zM370 690
q-67 0 -105.5 38.5t-38.5 108.5h79q0 -38 16 -56.5t49 -18.5t49 18.5t16 56.5h79q0 -70 -38.5 -108.5t-105.5 -38.5z" />
    <glyph glyph-name="gbreve" unicode="&#x11f;" horiz-adv-x="633" 
d="M460 431l23 63h76v-505q0 -95 -44.5 -137t-146.5 -42h-252l24 101h228q42 0 60.5 18t18.5 60v74q-32 -29 -72.5 -44t-86.5 -15q-105 0 -177 71t-72 179t72 179t177 71q51 0 95.5 -19t76.5 -54zM303 103q67 0 110 42t43 109t-43 109.5t-110 42.5t-109.5 -42.5
t-42.5 -109.5t42.5 -109t109.5 -42zM304 540q-67 0 -105.5 38.5t-38.5 108.5h79q0 -38 16 -56.5t49 -18.5t49 18.5t16 56.5h79q0 -70 -38.5 -108.5t-105.5 -38.5z" />
    <glyph glyph-name="Gdotaccent" unicode="&#x120;" horiz-adv-x="739" 
d="M348 349h346q1 -17 1.5 -27t0.5 -18q0 -140 -90 -227t-232 -87q-143 0 -236.5 93.5t-93.5 236.5t93 236.5t235 93.5q119 0 203.5 -63t106.5 -165h-120q-17 56 -68 90t-121 34q-95 0 -153.5 -62t-58.5 -164q0 -103 59 -165t155 -62q86 0 139 42t62 117h-228v97zM313 720
v114h115v-114h-115z" />
    <glyph glyph-name="gdotaccent" unicode="&#x121;" horiz-adv-x="633" 
d="M460 431l23 63h76v-505q0 -95 -44.5 -137t-146.5 -42h-252l24 101h228q42 0 60.5 18t18.5 60v74q-32 -29 -72.5 -44t-86.5 -15q-105 0 -177 71t-72 179t72 179t177 71q51 0 95.5 -19t76.5 -54zM303 103q67 0 110 42t43 109t-43 109.5t-110 42.5t-109.5 -42.5
t-42.5 -109.5t42.5 -109t109.5 -42zM247 570v114h115v-114h-115z" />
    <glyph glyph-name="Gcommaaccent" unicode="&#x122;" horiz-adv-x="739" 
d="M348 349h346q1 -17 1.5 -27t0.5 -18q0 -140 -90 -227t-232 -87q-143 0 -236.5 93.5t-93.5 236.5t93 236.5t235 93.5q119 0 203.5 -63t106.5 -165h-120q-17 56 -68 90t-121 34q-95 0 -153.5 -62t-58.5 -164q0 -103 59 -165t155 -62q86 0 139 42t62 117h-228v97zM227 -190
l95 140h114l-112 -140h-97z" />
    <glyph glyph-name="gcommaaccent" unicode="&#x123;" horiz-adv-x="633" 
d="M460 431l23 63h76v-505q0 -95 -44.5 -137t-146.5 -42h-252l24 101h228q42 0 60.5 18t18.5 60v74q-32 -29 -72.5 -44t-86.5 -15q-105 0 -177 71t-72 179t72 179t177 71q51 0 95.5 -19t76.5 -54zM303 103q67 0 110 42t43 109t-43 109.5t-110 42.5t-109.5 -42.5
t-42.5 -109.5t42.5 -109t109.5 -42zM458 690l-100 -150h-114l118 150h96z" />
    <glyph glyph-name="Hcircumflex" unicode="&#x124;" horiz-adv-x="728" 
d="M84 0v640h114v-263h333v263h113v-640h-113v276h-333v-276h-114zM523 690h-93l-65 86l-66 -86h-93l106 150h105z" />
    <glyph glyph-name="hcircumflex" unicode="&#x125;" horiz-adv-x="606" 
d="M309 405q-57 0 -90.5 -34t-33.5 -91v-280h-111v690h111v-243q27 28 65 42.5t82 14.5q94 0 152.5 -57t58.5 -150v-297h-111v280q0 58 -33.5 91.5t-89.5 33.5zM399 740h-93l-65 86l-66 -86h-93l106 150h105z" />
    <glyph glyph-name="Hbar" unicode="&#x126;" horiz-adv-x="728" 
d="M84 556v84h114v-84h333v84h113v-84h78v-80h-78v-476h-113v276h-333v-276h-114v476h-78v80h78zM198 476v-99h333v99h-333z" />
    <glyph glyph-name="hbar" unicode="&#x127;" horiz-adv-x="606" 
d="M309 405q-57 0 -90.5 -34t-33.5 -91v-280h-111v561h-82v79h82v50h111v-50h205v-79h-205v-114q27 28 65 42.5t82 14.5q94 0 152.5 -57t58.5 -150v-297h-111v280q0 58 -33.5 91.5t-89.5 33.5z" />
    <glyph glyph-name="Itilde" unicode="&#x128;" horiz-adv-x="282" 
d="M84 0v640h114v-640h-114zM77 834q22 0 41.5 -9.5t47.5 -36.5q14 -14 20.5 -18t12.5 -4q12 0 17.5 14t5.5 45h71q0 -65 -21.5 -97.5t-65.5 -32.5q-22 0 -41 9t-46 36q-15 15 -22 19t-13 4q-12 0 -17.5 -14t-5.5 -45h-71q0 65 21.5 97.5t65.5 32.5z" />
    <glyph glyph-name="itilde" unicode="&#x129;" horiz-adv-x="259" 
d="M74 0v494h111v-494h-111zM65 684q22 0 41.5 -9.5t47.5 -36.5q14 -14 20.5 -18t12.5 -4q12 0 17.5 14t5.5 45h71q0 -65 -21.5 -97.5t-65.5 -32.5q-22 0 -41 9t-46 36q-15 15 -22 19t-13 4q-12 0 -17.5 -14t-5.5 -45h-71q0 65 21.5 97.5t65.5 32.5z" />
    <glyph glyph-name="Imacron" unicode="&#x12a;" horiz-adv-x="282" 
d="M84 0v640h114v-640h-114zM5 802h274v-79h-274v79z" />
    <glyph glyph-name="imacron" unicode="&#x12b;" horiz-adv-x="259" 
d="M74 0v494h111v-494h-111zM-7 652h274v-79h-274v79z" />
    <glyph glyph-name="Ibreve" unicode="&#x12c;" horiz-adv-x="282" 
d="M84 0v640h114v-640h-114zM142 690q-67 0 -105.5 38.5t-38.5 108.5h79q0 -38 16 -56.5t49 -18.5t49 18.5t16 56.5h79q0 -70 -38.5 -108.5t-105.5 -38.5z" />
    <glyph glyph-name="ibreve" unicode="&#x12d;" horiz-adv-x="259" 
d="M74 0v494h111v-494h-111zM130 540q-67 0 -105.5 38.5t-38.5 108.5h79q0 -38 16 -56.5t49 -18.5t49 18.5t16 56.5h79q0 -70 -38.5 -108.5t-105.5 -38.5z" />
    <glyph glyph-name="Iogonek" unicode="&#x12e;" horiz-adv-x="282" 
d="M84 0v640h114v-640l-39 -48q-13 -15 -18 -26t-5 -22q0 -12 8.5 -18t24.5 -6h60v-80h-84q-52 0 -80 21t-28 60q0 24 11.5 46t41.5 54l19 19h-25z" />
    <glyph glyph-name="iogonek" unicode="&#x12f;" horiz-adv-x="259" 
d="M72 570v114h115v-114h-115zM74 0v494h111v-494l-41 -48q-13 -15 -18.5 -26t-5.5 -22q0 -12 8.5 -18t24.5 -6h60v-80h-84q-52 0 -80 21t-28 60q0 23 11.5 44.5t44.5 56.5l18 18h-21z" />
    <glyph glyph-name="Idotaccent" unicode="&#x130;" horiz-adv-x="282" 
d="M84 0v640h114v-640h-114zM85 720v114h115v-114h-115z" />
    <glyph glyph-name="dotlessi" unicode="&#x131;" horiz-adv-x="259" 
d="M74 0v494h111v-494h-111z" />
    <glyph glyph-name="IJ" unicode="&#x132;" horiz-adv-x="682" 
d="M84 0v640h114v-640h-114zM493 197v443h114v-451q0 -92 -51.5 -140.5t-147.5 -48.5h-104v102h85q57 0 80.5 21.5t23.5 73.5z" />
    <glyph glyph-name="ij" unicode="&#x133;" horiz-adv-x="518" 
d="M72 570v114h115v-114h-115zM74 0v494h111v-494h-111zM331 570v114h115v-114h-115zM333 -24v518h111v-520q0 -85 -42 -124.5t-132 -39.5h-67v99h49q42 0 61.5 16t19.5 51z" />
    <glyph glyph-name="Jcircumflex" unicode="&#x134;" horiz-adv-x="400" 
d="M211 197v443h114v-451q0 -92 -51.5 -140.5t-147.5 -48.5h-104v102h85q57 0 80.5 21.5t23.5 73.5zM425 690h-93l-65 86l-66 -86h-93l106 150h105z" />
    <glyph glyph-name="jcircumflex" unicode="&#x135;" horiz-adv-x="259" 
d="M74 -24v518h111v-520q0 -85 -42 -124.5t-132 -39.5h-67v99h49q42 0 61.5 16t19.5 51zM288 540h-93l-65 86l-66 -86h-93l106 150h105z" />
    <glyph glyph-name="Kcommaaccent" unicode="&#x136;" horiz-adv-x="671" 
d="M84 0v640h114v-262h76l238 262h134v-4l-276 -301l283 -330v-5h-142l-233 277h-80v-277h-114zM195 -190l95 140h114l-112 -140h-97z" />
    <glyph glyph-name="kcommaaccent" unicode="&#x137;" horiz-adv-x="566" 
d="M74 0v690h111v-391h73l161 195h123v-5l-194 -233l205 -251v-5h-132l-165 204h-71v-204h-111zM148 -190l95 140h114l-112 -140h-97z" />
    <glyph glyph-name="kgreenlandic" unicode="&#x138;" horiz-adv-x="566" 
d="M74 0v494h111v-195h73l161 195h123v-5l-194 -233l205 -251v-5h-132l-165 204h-71v-204h-111z" />
    <glyph glyph-name="Lacute" unicode="&#x139;" horiz-adv-x="536" 
d="M84 0v640h114v-535h316v-105h-430zM94 690l100 150h114l-118 -150h-96z" />
    <glyph glyph-name="lacute" unicode="&#x13a;" horiz-adv-x="259" 
d="M74 0v690h111v-690h-111zM82 740l100 150h114l-118 -150h-96z" />
    <glyph glyph-name="Lcommaaccent" unicode="&#x13b;" horiz-adv-x="536" 
d="M84 0v640h114v-535h316v-105h-430zM160 -190l95 140h114l-112 -140h-97z" />
    <glyph glyph-name="lcommaaccent" unicode="&#x13c;" horiz-adv-x="259" 
d="M74 0v690h111v-690h-111zM-22 -190l95 140h114l-112 -140h-97z" />
    <glyph glyph-name="Lcaron" unicode="&#x13d;" horiz-adv-x="536" 
d="M84 0v640h114v-535h316v-105h-430zM275 440v200h111l-28 -200h-83z" />
    <glyph glyph-name="lcaron" unicode="&#x13e;" horiz-adv-x="307" 
d="M74 0v690h111v-690h-111zM234 490v200h111l-28 -200h-83z" />
    <glyph glyph-name="Ldot" unicode="&#x13f;" horiz-adv-x="536" 
d="M84 0v640h114v-535h316v-105h-430zM352 298v114h114v-114h-114z" />
    <glyph glyph-name="ldot" unicode="&#x140;" horiz-adv-x="324" 
d="M74 0v690h111v-690h-111zM235 284v114h114v-114h-114z" />
    <glyph glyph-name="Lslash" unicode="&#x141;" horiz-adv-x="556" 
d="M218 395l138 79v-107l-138 -80v-182h315v-105h-429v222l-72 -42v108l72 41v311h114v-245z" />
    <glyph glyph-name="lslash" unicode="&#x142;" horiz-adv-x="308" 
d="M100 246l-75 -49v106l75 49v338h111v-266l75 49v-107l-75 -49v-317h-111v246z" />
    <glyph glyph-name="Nacute" unicode="&#x143;" horiz-adv-x="747" 
d="M84 0v640h110l359 -461v461h110v-640h-110l-359 460v-460h-110zM326 690l100 150h114l-118 -150h-96z" />
    <glyph glyph-name="nacute" unicode="&#x144;" horiz-adv-x="606" 
d="M309 405q-57 0 -90.5 -34t-33.5 -91v-280h-111v494h80l19 -61q26 34 67.5 52.5t91.5 18.5q94 0 152.5 -57t58.5 -150v-297h-111v280q0 58 -33.5 91.5t-89.5 33.5zM264 540l100 150h114l-118 -150h-96z" />
    <glyph glyph-name="Ncommaaccent" unicode="&#x145;" horiz-adv-x="747" 
d="M84 0v640h110l359 -461v461h110v-640h-110l-359 460v-460h-110zM222 -190l95 140h114l-112 -140h-97z" />
    <glyph glyph-name="ncommaaccent" unicode="&#x146;" horiz-adv-x="606" 
d="M309 405q-57 0 -90.5 -34t-33.5 -91v-280h-111v494h80l19 -61q26 34 67.5 52.5t91.5 18.5q94 0 152.5 -57t58.5 -150v-297h-111v280q0 58 -33.5 91.5t-89.5 33.5zM160 -190l95 140h114l-112 -140h-97z" />
    <glyph glyph-name="Ncaron" unicode="&#x147;" horiz-adv-x="747" 
d="M84 0v640h110l359 -461v461h110v-640h-110l-359 460v-460h-110zM439 839h93l-106 -150h-105l-106 150h93l66 -86z" />
    <glyph glyph-name="ncaron" unicode="&#x148;" horiz-adv-x="606" 
d="M309 405q-57 0 -90.5 -34t-33.5 -91v-280h-111v494h80l19 -61q26 34 67.5 52.5t91.5 18.5q94 0 152.5 -57t58.5 -150v-297h-111v280q0 58 -33.5 91.5t-89.5 33.5zM377 689h93l-106 -150h-105l-106 150h93l66 -86z" />
    <glyph glyph-name="napostrophe" unicode="&#x149;" horiz-adv-x="606" 
d="M309 405q-57 0 -90.5 -34t-33.5 -91v-280h-111v494h80l19 -61q26 34 67.5 52.5t91.5 18.5q94 0 152.5 -57t58.5 -150v-297h-111v280q0 58 -33.5 91.5t-89.5 33.5zM286 690l-100 -150h-114l118 150h96z" />
    <glyph glyph-name="Eng" unicode="&#x14a;" horiz-adv-x="747" 
d="M84 0v640h110l359 -461v461h110v-641q0 -92 -50 -140.5t-145 -48.5h-103v102h84q55 0 79 20t25 68l-359 460v-460h-110z" />
    <glyph glyph-name="eng" unicode="&#x14b;" horiz-adv-x="606" 
d="M309 405q-57 0 -90.5 -34t-33.5 -91v-280h-111v494h80l19 -61q26 34 67.5 52.5t91.5 18.5q94 0 152.5 -57t58.5 -150v-323q0 -85 -42 -124.5t-132 -39.5h-73v102h55q43 0 62 15.5t19 48.5v304q0 58 -33.5 91.5t-89.5 33.5z" />
    <glyph glyph-name="Omacron" unicode="&#x14c;" horiz-adv-x="748" 
d="M374 650q143 0 236.5 -93.5t93.5 -236.5q0 -144 -93.5 -237t-236.5 -93t-236.5 93t-93.5 237q0 143 93.5 236.5t236.5 93.5zM374 95q95 0 154 62t59 163t-59 163.5t-154 62.5t-154 -62.5t-59 -163.5t59 -163t154 -62zM238 802h274v-79h-274v79z" />
    <glyph glyph-name="omacron" unicode="&#x14d;" horiz-adv-x="603" 
d="M301 504q115 0 189 -72t74 -185t-74 -185t-189 -72t-188.5 72t-73.5 185t73.5 185t188.5 72zM301 89q67 0 109 43.5t42 114.5t-42 115t-109 44t-108.5 -44t-41.5 -115t41.5 -114.5t108.5 -43.5zM164 652h274v-79h-274v79z" />
    <glyph glyph-name="Obreve" unicode="&#x14e;" horiz-adv-x="748" 
d="M374 650q143 0 236.5 -93.5t93.5 -236.5q0 -144 -93.5 -237t-236.5 -93t-236.5 93t-93.5 237q0 143 93.5 236.5t236.5 93.5zM374 95q95 0 154 62t59 163t-59 163.5t-154 62.5t-154 -62.5t-59 -163.5t59 -163t154 -62zM375 690q-67 0 -105.5 38.5t-38.5 108.5h79
q0 -38 16 -56.5t49 -18.5t49 18.5t16 56.5h79q0 -70 -38.5 -108.5t-105.5 -38.5z" />
    <glyph glyph-name="obreve" unicode="&#x14f;" horiz-adv-x="603" 
d="M301 504q115 0 189 -72t74 -185t-74 -185t-189 -72t-188.5 72t-73.5 185t73.5 185t188.5 72zM301 89q67 0 109 43.5t42 114.5t-42 115t-109 44t-108.5 -44t-41.5 -115t41.5 -114.5t108.5 -43.5zM301 540q-67 0 -105.5 38.5t-38.5 108.5h79q0 -38 16 -56.5t49 -18.5
t49 18.5t16 56.5h79q0 -70 -38.5 -108.5t-105.5 -38.5z" />
    <glyph glyph-name="Ohungarumlaut" unicode="&#x150;" horiz-adv-x="748" 
d="M374 650q143 0 236.5 -93.5t93.5 -236.5q0 -144 -93.5 -237t-236.5 -93t-236.5 93t-93.5 237q0 143 93.5 236.5t236.5 93.5zM374 95q95 0 154 62t59 163t-59 163.5t-154 62.5t-154 -62.5t-59 -163.5t59 -163t154 -62zM254 690l80 150h92l-93 -150h-79zM417 690l80 150h92
l-93 -150h-79z" />
    <glyph glyph-name="ohungarumlaut" unicode="&#x151;" horiz-adv-x="603" 
d="M301 504q115 0 189 -72t74 -185t-74 -185t-189 -72t-188.5 72t-73.5 185t73.5 185t188.5 72zM301 89q67 0 109 43.5t42 114.5t-42 115t-109 44t-108.5 -44t-41.5 -115t41.5 -114.5t108.5 -43.5zM181 540l80 150h92l-93 -150h-79zM344 540l80 150h92l-93 -150h-79z" />
    <glyph glyph-name="OE" unicode="&#x152;" horiz-adv-x="953" 
d="M908 0h-535q-144 0 -237 90.5t-93 229.5t93 229.5t237 90.5h535v-103h-335v-163h305v-100h-305v-171h335v-103zM160 320q0 -97 59 -156t154 -59h86v430h-86q-95 0 -154 -59t-59 -156z" />
    <glyph glyph-name="oe" unicode="&#x153;" horiz-adv-x="993" 
d="M839 166h110q-14 -78 -78 -127t-155 -49q-67 0 -121.5 28t-87.5 80q-34 -52 -89 -80t-122 -28q-112 0 -184.5 72t-72.5 185t72.5 185t184.5 72q67 0 121.5 -28t88.5 -79q32 51 85 79t119 28q107 0 174.5 -69.5t67.5 -179.5q0 -6 -0.5 -16t-1.5 -21h-388q7 -64 47 -99
t103 -35q49 0 82.5 22t44.5 60zM703 412q-57 0 -93 -30t-46 -87h280q-6 54 -44.5 85.5t-96.5 31.5zM301 89q67 0 109 43.5t42 114.5t-42 115t-109 44t-108.5 -44t-41.5 -115t41.5 -114.5t108.5 -43.5z" />
    <glyph glyph-name="Racute" unicode="&#x154;" horiz-adv-x="644" 
d="M610 0h-132l-131 223h-149v-223h-114v640h261q116 0 180.5 -55t64.5 -154q0 -70 -33.5 -118.5t-96.5 -71.5zM474 430q0 52 -33 80.5t-94 28.5h-149v-218h149q60 0 93.5 28.5t33.5 80.5zM274 690l100 150h114l-118 -150h-96z" />
    <glyph glyph-name="racute" unicode="&#x155;" horiz-adv-x="393" 
d="M74 0v494h309l-33 -101h-165v-393h-111zM185 540l100 150h114l-118 -150h-96z" />
    <glyph glyph-name="Rcommaaccent" unicode="&#x156;" horiz-adv-x="644" 
d="M610 0h-132l-131 223h-149v-223h-114v640h261q116 0 180.5 -55t64.5 -154q0 -70 -33.5 -118.5t-96.5 -71.5zM474 430q0 52 -33 80.5t-94 28.5h-149v-218h149q60 0 93.5 28.5t33.5 80.5zM170 -190l95 140h114l-112 -140h-97z" />
    <glyph glyph-name="rcommaaccent" unicode="&#x157;" horiz-adv-x="393" 
d="M74 0v494h309l-33 -101h-165v-393h-111zM-23 -190l95 140h114l-112 -140h-97z" />
    <glyph glyph-name="Rcaron" unicode="&#x158;" horiz-adv-x="644" 
d="M610 0h-132l-131 223h-149v-223h-114v640h261q116 0 180.5 -55t64.5 -154q0 -70 -33.5 -118.5t-96.5 -71.5zM474 430q0 52 -33 80.5t-94 28.5h-149v-218h149q60 0 93.5 28.5t33.5 80.5zM387 839h93l-106 -150h-105l-106 150h93l66 -86z" />
    <glyph glyph-name="rcaron" unicode="&#x159;" horiz-adv-x="393" 
d="M74 0v494h309l-33 -101h-165v-393h-111zM298 689h93l-106 -150h-105l-106 150h93l66 -86z" />
    <glyph glyph-name="Sacute" unicode="&#x15a;" horiz-adv-x="603" 
d="M315 91q58 0 92 22.5t34 62.5q0 36 -28.5 55.5t-91.5 29.5l-57 8q-102 16 -157 65.5t-55 125.5q0 87 64.5 138.5t173.5 51.5q112 0 180.5 -55t72.5 -149h-117q-4 50 -39 77t-97 27q-57 0 -89.5 -22.5t-32.5 -61.5q0 -37 31.5 -57t106.5 -31l57 -9q97 -14 147 -60.5
t50 -122.5q0 -90 -66 -143t-181 -53q-118 0 -191.5 59t-75.5 152h119q2 -49 44 -79.5t106 -30.5zM254 690l100 150h114l-118 -150h-96z" />
    <glyph glyph-name="sacute" unicode="&#x15b;" horiz-adv-x="509" 
d="M265 78q46 0 69.5 14.5t23.5 42.5q0 26 -21 39.5t-69 20.5l-55 7q-81 12 -122.5 49.5t-41.5 99.5q0 70 53.5 111.5t143.5 41.5q93 0 152 -45t60 -116h-105q-1 34 -29.5 54t-77.5 20q-42 0 -65 -15t-23 -43q0 -25 21 -39t67 -21l55 -8q85 -12 126 -47.5t41 -96.5
q0 -72 -55 -114.5t-148 -42.5q-98 0 -160 49t-64 126h108q2 -39 33 -63t83 -24zM205 540l100 150h114l-118 -150h-96z" />
    <glyph glyph-name="Scircumflex" unicode="&#x15c;" horiz-adv-x="603" 
d="M315 91q58 0 92 22.5t34 62.5q0 36 -28.5 55.5t-91.5 29.5l-57 8q-102 16 -157 65.5t-55 125.5q0 87 64.5 138.5t173.5 51.5q112 0 180.5 -55t72.5 -149h-117q-4 50 -39 77t-97 27q-57 0 -89.5 -22.5t-32.5 -61.5q0 -37 31.5 -57t106.5 -31l57 -9q97 -14 147 -60.5
t50 -122.5q0 -90 -66 -143t-181 -53q-118 0 -191.5 59t-75.5 152h119q2 -49 44 -79.5t106 -30.5zM460 690h-93l-65 86l-66 -86h-93l106 150h105z" />
    <glyph glyph-name="scircumflex" unicode="&#x15d;" horiz-adv-x="509" 
d="M265 78q46 0 69.5 14.5t23.5 42.5q0 26 -21 39.5t-69 20.5l-55 7q-81 12 -122.5 49.5t-41.5 99.5q0 70 53.5 111.5t143.5 41.5q93 0 152 -45t60 -116h-105q-1 34 -29.5 54t-77.5 20q-42 0 -65 -15t-23 -43q0 -25 21 -39t67 -21l55 -8q85 -12 126 -47.5t41 -96.5
q0 -72 -55 -114.5t-148 -42.5q-98 0 -160 49t-64 126h108q2 -39 33 -63t83 -24zM411 540h-93l-65 86l-66 -86h-93l106 150h105z" />
    <glyph glyph-name="Scedilla" unicode="&#x15e;" horiz-adv-x="603" 
d="M315 91q58 0 92 22.5t34 62.5q0 36 -28.5 55.5t-91.5 29.5l-57 8q-102 16 -157 65.5t-55 125.5q0 87 64.5 138.5t173.5 51.5q112 0 180.5 -55t72.5 -149h-117q-4 50 -39 77t-97 27q-57 0 -89.5 -22.5t-32.5 -61.5q0 -37 31.5 -57t106.5 -31l57 -9q97 -14 147 -60.5
t50 -122.5q0 -90 -66 -143t-181 -53q-118 0 -191.5 59t-75.5 152h119q2 -49 44 -79.5t106 -30.5zM264 -28l72 -11q49 -8 72 -27t23 -52q0 -36 -35 -59t-91 -23q-60 0 -97 25.5t-39 67.5h86q1 -18 14 -29t35 -11q19 0 29.5 7.5t10.5 21.5t-10.5 22t-33.5 12l-36 6v50z" />
    <glyph glyph-name="scedilla" unicode="&#x15f;" horiz-adv-x="509" 
d="M265 78q46 0 69.5 14.5t23.5 42.5q0 26 -21 39.5t-69 20.5l-55 7q-81 12 -122.5 49.5t-41.5 99.5q0 70 53.5 111.5t143.5 41.5q93 0 152 -45t60 -116h-105q-1 34 -29.5 54t-77.5 20q-42 0 -65 -15t-23 -43q0 -25 21 -39t67 -21l55 -8q85 -12 126 -47.5t41 -96.5
q0 -72 -55 -114.5t-148 -42.5q-98 0 -160 49t-64 126h108q2 -39 33 -63t83 -24zM218 -28l72 -11q49 -8 72 -27t23 -52q0 -36 -35 -59t-91 -23q-60 0 -97 25.5t-39 67.5h86q1 -18 14 -29t35 -11q19 0 29.5 7.5t10.5 21.5t-10.5 22t-33.5 12l-36 6v50z" />
    <glyph glyph-name="Scaron" unicode="&#x160;" horiz-adv-x="603" 
d="M315 91q58 0 92 22.5t34 62.5q0 36 -28.5 55.5t-91.5 29.5l-57 8q-102 16 -157 65.5t-55 125.5q0 87 64.5 138.5t173.5 51.5q112 0 180.5 -55t72.5 -149h-117q-4 50 -39 77t-97 27q-57 0 -89.5 -22.5t-32.5 -61.5q0 -37 31.5 -57t106.5 -31l57 -9q97 -14 147 -60.5
t50 -122.5q0 -90 -66 -143t-181 -53q-118 0 -191.5 59t-75.5 152h119q2 -49 44 -79.5t106 -30.5zM367 839h93l-106 -150h-105l-106 150h93l66 -86z" />
    <glyph glyph-name="scaron" unicode="&#x161;" horiz-adv-x="509" 
d="M265 78q46 0 69.5 14.5t23.5 42.5q0 26 -21 39.5t-69 20.5l-55 7q-81 12 -122.5 49.5t-41.5 99.5q0 70 53.5 111.5t143.5 41.5q93 0 152 -45t60 -116h-105q-1 34 -29.5 54t-77.5 20q-42 0 -65 -15t-23 -43q0 -25 21 -39t67 -21l55 -8q85 -12 126 -47.5t41 -96.5
q0 -72 -55 -114.5t-148 -42.5q-98 0 -160 49t-64 126h108q2 -39 33 -63t83 -24zM318 689h93l-106 -150h-105l-106 150h93l66 -86z" />
    <glyph glyph-name="uni0162" unicode="&#x162;" horiz-adv-x="615" 
d="M251 535h-230v105h573v-105h-229v-535h-114v535zM155 -190l95 140h114l-112 -140h-97z" />
    <glyph glyph-name="uni0163" unicode="&#x163;" horiz-adv-x="404" 
d="M291 102h84v-102h-87q-101 0 -147.5 41t-46.5 131v229h-79v18l171 176h19v-101h163v-93h-163v-221q0 -40 21 -59t65 -19zM65 -190l95 140h114l-112 -140h-97z" />
    <glyph glyph-name="Tcaron" unicode="&#x164;" horiz-adv-x="615" 
d="M251 535h-230v105h573v-105h-229v-535h-114v535zM373 839h93l-106 -150h-105l-106 150h93l66 -86z" />
    <glyph glyph-name="tcaron" unicode="&#x165;" horiz-adv-x="404" 
d="M291 102h84v-102h-87q-101 0 -147.5 41t-46.5 131v229h-79v18l171 176h19v-101h163v-93h-163v-221q0 -40 21 -59t65 -19zM247 541v200h111l-28 -200h-83z" />
    <glyph glyph-name="Tbar" unicode="&#x166;" horiz-adv-x="615" 
d="M251 535h-230v105h573v-105h-229v-190h127v-101h-127v-244h-114v244h-127v101h127v190z" />
    <glyph glyph-name="tbar" unicode="&#x167;" horiz-adv-x="404" 
d="M205 285h119v-79h-119v-26q0 -40 21 -59t65 -19h84v-102h-87q-101 0 -147.5 41t-46.5 131v34h-72v79h72v116h-79v18l171 176h19v-101h163v-93h-163v-116z" />
    <glyph glyph-name="Utilde" unicode="&#x168;" horiz-adv-x="706" 
d="M353 -10q-136 0 -210 73t-74 207v370h114v-366q0 -88 43 -133.5t127 -45.5q83 0 126.5 45.5t43.5 133.5v366h114v-370q0 -134 -74 -207t-210 -73zM289 834q22 0 41.5 -9.5t47.5 -36.5q14 -14 20.5 -18t12.5 -4q12 0 17.5 14t5.5 45h71q0 -65 -21.5 -97.5t-65.5 -32.5
q-22 0 -41 9t-46 36q-15 15 -22 19t-13 4q-12 0 -17.5 -14t-5.5 -45h-71q0 65 21.5 97.5t65.5 32.5z" />
    <glyph glyph-name="utilde" unicode="&#x169;" horiz-adv-x="581" 
d="M290 -10q-105 0 -167 57.5t-62 154.5v292h111v-281q0 -58 31.5 -91t86.5 -33q56 0 87.5 33t31.5 91v281h111v-292q0 -96 -63 -154t-167 -58zM226 684q22 0 41.5 -9.5t47.5 -36.5q14 -14 20.5 -18t12.5 -4q12 0 17.5 14t5.5 45h71q0 -65 -21.5 -97.5t-65.5 -32.5
q-22 0 -41 9t-46 36q-15 15 -22 19t-13 4q-12 0 -17.5 -14t-5.5 -45h-71q0 65 21.5 97.5t65.5 32.5z" />
    <glyph glyph-name="Umacron" unicode="&#x16a;" horiz-adv-x="706" 
d="M353 -10q-136 0 -210 73t-74 207v370h114v-366q0 -88 43 -133.5t127 -45.5q83 0 126.5 45.5t43.5 133.5v366h114v-370q0 -134 -74 -207t-210 -73zM217 802h274v-79h-274v79z" />
    <glyph glyph-name="umacron" unicode="&#x16b;" horiz-adv-x="581" 
d="M290 -10q-105 0 -167 57.5t-62 154.5v292h111v-281q0 -58 31.5 -91t86.5 -33q56 0 87.5 33t31.5 91v281h111v-292q0 -96 -63 -154t-167 -58zM153 652h274v-79h-274v79z" />
    <glyph glyph-name="Ubreve" unicode="&#x16c;" horiz-adv-x="706" 
d="M353 -10q-136 0 -210 73t-74 207v370h114v-366q0 -88 43 -133.5t127 -45.5q83 0 126.5 45.5t43.5 133.5v366h114v-370q0 -134 -74 -207t-210 -73zM354 690q-67 0 -105.5 38.5t-38.5 108.5h79q0 -38 16 -56.5t49 -18.5t49 18.5t16 56.5h79q0 -70 -38.5 -108.5
t-105.5 -38.5z" />
    <glyph glyph-name="ubreve" unicode="&#x16d;" horiz-adv-x="581" 
d="M290 -10q-105 0 -167 57.5t-62 154.5v292h111v-281q0 -58 31.5 -91t86.5 -33q56 0 87.5 33t31.5 91v281h111v-292q0 -96 -63 -154t-167 -58zM290 540q-67 0 -105.5 38.5t-38.5 108.5h79q0 -38 16 -56.5t49 -18.5t49 18.5t16 56.5h79q0 -70 -38.5 -108.5t-105.5 -38.5z
" />
    <glyph glyph-name="Uring" unicode="&#x16e;" horiz-adv-x="706" 
d="M353 -10q-136 0 -210 73t-74 207v370h114v-366q0 -88 43 -133.5t127 -45.5q83 0 126.5 45.5t43.5 133.5v366h114v-370q0 -134 -74 -207t-210 -73zM354 883q48 0 79 -29.5t31 -75.5t-31 -75.5t-79 -29.5t-79 29.5t-31 75.5t31 75.5t79 29.5zM354 727q24 0 37.5 13.5
t13.5 37.5t-13.5 37.5t-37.5 13.5t-37.5 -13.5t-13.5 -37.5t13.5 -37.5t37.5 -13.5z" />
    <glyph glyph-name="uring" unicode="&#x16f;" horiz-adv-x="581" 
d="M290 -10q-105 0 -167 57.5t-62 154.5v292h111v-281q0 -58 31.5 -91t86.5 -33q56 0 87.5 33t31.5 91v281h111v-292q0 -96 -63 -154t-167 -58zM290 733q48 0 79 -29.5t31 -75.5t-31 -75.5t-79 -29.5t-79 29.5t-31 75.5t31 75.5t79 29.5zM290 577q24 0 37.5 13.5t13.5 37.5
t-13.5 37.5t-37.5 13.5t-37.5 -13.5t-13.5 -37.5t13.5 -37.5t37.5 -13.5z" />
    <glyph glyph-name="Uhungarumlaut" unicode="&#x170;" horiz-adv-x="706" 
d="M353 -10q-136 0 -210 73t-74 207v370h114v-366q0 -88 43 -133.5t127 -45.5q83 0 126.5 45.5t43.5 133.5v366h114v-370q0 -134 -74 -207t-210 -73zM233 690l80 150h92l-93 -150h-79zM396 690l80 150h92l-93 -150h-79z" />
    <glyph glyph-name="uhungarumlaut" unicode="&#x171;" horiz-adv-x="581" 
d="M290 -10q-105 0 -167 57.5t-62 154.5v292h111v-281q0 -58 31.5 -91t86.5 -33q56 0 87.5 33t31.5 91v281h111v-292q0 -96 -63 -154t-167 -58zM170 540l80 150h92l-93 -150h-79zM333 540l80 150h92l-93 -150h-79z" />
    <glyph glyph-name="Uogonek" unicode="&#x172;" horiz-adv-x="706" 
d="M387 -120h62v-80h-86q-50 0 -78 21t-28 59q0 27 17.5 52.5t51.5 49.5l11 8q-129 5 -198.5 77.5t-69.5 202.5v370h114v-366q0 -88 43 -133.5t127 -45.5q83 0 126.5 45.5t43.5 133.5v366h114v-370q0 -83 -31.5 -144t-95.5 -102l-120 -77q-18 -11 -26 -22t-8 -23
q0 -11 8 -16.5t23 -5.5z" />
    <glyph glyph-name="uogonek" unicode="&#x173;" horiz-adv-x="581" 
d="M324 -121h63v-79h-88q-50 0 -77 21t-27 59q0 26 15.5 50.5t47.5 48.5l15 11q-98 5 -155 62t-57 150v292h111v-281q0 -58 31.5 -91t86.5 -33q56 0 87.5 33t31.5 91v281h111v-292q0 -52 -22 -96t-65 -77l-109 -81q-16 -12 -23.5 -23t-7.5 -23q0 -11 8 -17t23 -6z" />
    <glyph glyph-name="Wcircumflex" unicode="&#x174;" horiz-adv-x="959" 
d="M21 640h121l140 -487l151 364l-48 123h123l177 -475l137 475h117l-193 -640h-113l-147 379l-159 -379h-113zM638 690h-93l-65 86l-66 -86h-93l106 150h105z" />
    <glyph glyph-name="wcircumflex" unicode="&#x175;" horiz-adv-x="822" 
d="M647 0h-115l-115 294l-122 -294h-107l-174 494h111l126 -364l118 285l-31 79h112l140 -366l115 366h101zM569 540h-93l-65 86l-66 -86h-93l106 150h105z" />
    <glyph glyph-name="Ycircumflex" unicode="&#x176;" horiz-adv-x="648" 
d="M514 640h126l-260 -385v-255h-114v255l-258 385h133l186 -283zM483 690h-93l-65 86l-66 -86h-93l106 150h105z" />
    <glyph glyph-name="ycircumflex" unicode="&#x177;" horiz-adv-x="555" 
d="M235 -19l8 22h-36l-196 491h116l154 -394l150 394h112l-212 -544q-28 -76 -71.5 -108t-125.5 -32h-69v99h63q48 0 69.5 15.5t37.5 56.5zM436 540h-93l-65 86l-66 -86h-93l106 150h105z" />
    <glyph glyph-name="Ydieresis" unicode="&#x178;" horiz-adv-x="648" 
d="M514 640h126l-260 -385v-255h-114v255l-258 385h133l186 -283zM185 727v107h103v-107h-103zM362 727v107h103v-107h-103z" />
    <glyph glyph-name="Zacute" unicode="&#x179;" horiz-adv-x="582" 
d="M392 536h-343v104h487v-104l-356 -431h365v-105h-509v105zM243 690l100 150h114l-118 -150h-96z" />
    <glyph glyph-name="zacute" unicode="&#x17a;" horiz-adv-x="497" 
d="M321 401h-279v93h409v-93l-286 -307h299v-94h-430v94zM201 540l100 150h114l-118 -150h-96z" />
    <glyph glyph-name="Zdotaccent" unicode="&#x17b;" horiz-adv-x="582" 
d="M392 536h-343v104h487v-104l-356 -431h365v-105h-509v105zM234 720v114h115v-114h-115z" />
    <glyph glyph-name="zdotaccent" unicode="&#x17c;" horiz-adv-x="497" 
d="M321 401h-279v93h409v-93l-286 -307h299v-94h-430v94zM191 570v114h115v-114h-115z" />
    <glyph glyph-name="Zcaron" unicode="&#x17d;" horiz-adv-x="582" 
d="M392 536h-343v104h487v-104l-356 -431h365v-105h-509v105zM356 839h93l-106 -150h-105l-106 150h93l66 -86z" />
    <glyph glyph-name="zcaron" unicode="&#x17e;" horiz-adv-x="497" 
d="M321 401h-279v93h409v-93l-286 -307h299v-94h-430v94zM314 689h93l-106 -150h-105l-106 150h93l66 -86z" />
    <glyph glyph-name="uni018F" unicode="&#x18f;" horiz-adv-x="739" 
d="M42 304q0 22 0.5 34t1.5 21h531q-12 86 -69 136.5t-141 50.5q-70 0 -121 -31t-69 -83h-119q22 97 106.5 157.5t203.5 60.5q142 0 235 -93.5t93 -236.5t-93.5 -236.5t-236.5 -93.5q-142 0 -232 87t-90 227zM362 93q82 0 137.5 45t71.5 124h-411q7 -79 60.5 -124t141.5 -45
z" />
    <glyph glyph-name="uni0191" unicode="&#x191;" horiz-adv-x="558" 
d="M84 -24v664h444v-105h-330v-188h300v-100h-300v-273q0 -84 -42.5 -124t-133.5 -40h-74v102h55q43 0 62 15.5t19 48.5z" />
    <glyph glyph-name="uni0192" unicode="&#x192;" horiz-adv-x="387" 
d="M93 389h-73v93h73v30q0 90 46.5 134t140.5 44h113l-23 -91h-72q-49 0 -71.5 -20t-22.5 -64v-33h165v-93h-165v-415q0 -84 -42 -124t-132 -40h-67v99h49q42 0 61.5 16t19.5 51v413z" />
    <glyph glyph-name="Ohorn" unicode="&#x1a0;" horiz-adv-x="760" 
d="M597 557q52 -41 79.5 -102t27.5 -135q0 -144 -93.5 -237t-236.5 -93t-236.5 93t-93.5 237q0 143 93.5 236.5t236.5 93.5q21 0 42.5 -1t58.5 -5q30 -2 44 -3t27 -1q42 0 64.5 20.5t22.5 58.5v15h104v-26q0 -59 -37.5 -99t-102.5 -52zM374 95q95 0 154 62t59 163t-59 163.5
t-154 62.5t-154 -62.5t-59 -163.5t59 -163t154 -62z" />
    <glyph glyph-name="ohorn" unicode="&#x1a1;" horiz-adv-x="630" 
d="M493 410q35 -32 53 -75t18 -93q0 -110 -74.5 -181t-188.5 -71t-188 72t-74 185t74 185t188 72q19 0 37.5 -1t51.5 -5l37.5 -3t23.5 -1q38 0 58.5 20.5t20.5 58.5v15h104v-26q0 -61 -38 -101.5t-103 -50.5zM301 89q67 0 109 43.5t42 114.5t-42 115t-109 44t-108 -44
t-41 -115t41 -114.5t108 -43.5z" />
    <glyph glyph-name="Uhorn" unicode="&#x1af;" horiz-adv-x="784" 
d="M353 -10q-136 0 -210 73t-74 207v370h114v-366q0 -88 43 -133.5t127 -45.5q83 0 126.5 45.5t43.5 133.5v366h86q38 0 59 20.5t21 58.5v15h104v-26q0 -64 -41.5 -105t-114.5 -49v-284q0 -134 -74 -207t-210 -73z" />
    <glyph glyph-name="uhorn" unicode="&#x1b0;" horiz-adv-x="646" 
d="M290 -10q-105 0 -167 57.5t-62 154.5v292h111v-281q0 -58 31.5 -91t86.5 -33q56 0 87.5 33t31.5 91v281h73q35 0 54 20.5t19 58.5v15h104v-26q0 -64 -37 -105.5t-102 -51.5v-203q0 -96 -63 -154t-167 -58z" />
    <glyph glyph-name="uni0218" unicode="&#x218;" horiz-adv-x="603" 
d="M315 91q58 0 92 22.5t34 62.5q0 36 -28.5 55.5t-91.5 29.5l-57 8q-102 16 -157 65.5t-55 125.5q0 87 64.5 138.5t173.5 51.5q112 0 180.5 -55t72.5 -149h-117q-4 50 -39 77t-97 27q-57 0 -89.5 -22.5t-32.5 -61.5q0 -37 31.5 -57t106.5 -31l57 -9q97 -14 147 -60.5
t50 -122.5q0 -90 -66 -143t-181 -53q-118 0 -191.5 59t-75.5 152h119q2 -49 44 -79.5t106 -30.5zM151 -190l95 140h114l-112 -140h-97z" />
    <glyph glyph-name="uni0219" unicode="&#x219;" horiz-adv-x="509" 
d="M265 78q46 0 69.5 14.5t23.5 42.5q0 26 -21 39.5t-69 20.5l-55 7q-81 12 -122.5 49.5t-41.5 99.5q0 70 53.5 111.5t143.5 41.5q93 0 152 -45t60 -116h-105q-1 34 -29.5 54t-77.5 20q-42 0 -65 -15t-23 -43q0 -25 21 -39t67 -21l55 -8q85 -12 126 -47.5t41 -96.5
q0 -72 -55 -114.5t-148 -42.5q-98 0 -160 49t-64 126h108q2 -39 33 -63t83 -24zM102 -190l95 140h114l-112 -140h-97z" />
    <glyph glyph-name="uni021A" unicode="&#x21a;" horiz-adv-x="615" 
d="M251 535h-230v105h573v-105h-229v-535h-114v535zM155 -190l95 140h114l-112 -140h-97z" />
    <glyph glyph-name="uni021B" unicode="&#x21b;" horiz-adv-x="404" 
d="M291 102h84v-102h-87q-101 0 -147.5 41t-46.5 131v229h-79v18l171 176h19v-101h163v-93h-163v-221q0 -40 21 -59t65 -19zM65 -190l95 140h114l-112 -140h-97z" />
    <glyph glyph-name="dotlessj" unicode="&#x237;" horiz-adv-x="259" 
d="M74 -24v518h111v-520q0 -85 -42 -124.5t-132 -39.5h-67v99h49q42 0 61.5 16t19.5 51z" />
    <glyph glyph-name="uni0259" unicode="&#x259;" horiz-adv-x="581" 
d="M281 504q115 0 187.5 -72t72.5 -186q-1 -114 -71.5 -185t-182.5 -71q-110 0 -178.5 69t-68.5 180q0 7 0.5 17t1.5 20h389q-8 63 -47.5 98.5t-102.5 35.5q-49 0 -82 -21.5t-46 -60.5h-110q14 79 79 127.5t159 48.5zM290 82q57 0 93 30t46 87h-280q6 -54 44.5 -85.5
t96.5 -31.5z" />
    <glyph glyph-name="uni02BC" unicode="&#x2bc;" horiz-adv-x="255" 
d="M41 371l51 269h123l-74 -269h-100z" />
    <glyph glyph-name="circumflex" unicode="&#x2c6;" horiz-adv-x="499" 
d="M408 540h-93l-65 86l-66 -86h-93l106 150h105z" />
    <glyph glyph-name="caron" unicode="&#x2c7;" horiz-adv-x="499" 
d="M315 689h93l-106 -150h-105l-106 150h93l66 -86z" />
    <glyph glyph-name="breve" unicode="&#x2d8;" horiz-adv-x="500" 
d="M250 540q-67 0 -105.5 38.5t-38.5 108.5h79q0 -38 16 -56.5t49 -18.5t49 18.5t16 56.5h79q0 -70 -38.5 -108.5t-105.5 -38.5z" />
    <glyph glyph-name="dotaccent" unicode="&#x2d9;" horiz-adv-x="501" 
d="M193 570v114h115v-114h-115z" />
    <glyph glyph-name="ring" unicode="&#x2da;" horiz-adv-x="500" 
d="M250 733q48 0 79 -29.5t31 -75.5t-31 -75.5t-79 -29.5t-79 29.5t-31 75.5t31 75.5t79 29.5zM250 577q24 0 37.5 13.5t13.5 37.5t-13.5 37.5t-37.5 13.5t-37.5 -13.5t-13.5 -37.5t13.5 -37.5t37.5 -13.5z" />
    <glyph glyph-name="ogonek" unicode="&#x2db;" horiz-adv-x="501" 
d="M295 38l51 -38l-62 -51q-16 -13 -23.5 -24.5t-7.5 -22.5t8 -16.5t23 -5.5h62v-80h-86q-50 0 -78 21t-28 59q0 26 15.5 51t47.5 49z" />
    <glyph glyph-name="tilde" unicode="&#x2dc;" horiz-adv-x="499" 
d="M185 684q22 0 41.5 -9.5t47.5 -36.5q14 -14 20.5 -18t12.5 -4q12 0 17.5 14t5.5 45h71q0 -65 -21.5 -97.5t-65.5 -32.5q-22 0 -41 9t-46 36q-15 15 -22 19t-13 4q-12 0 -17.5 -14t-5.5 -45h-71q0 65 21.5 97.5t65.5 32.5z" />
    <glyph glyph-name="hungarumlaut" unicode="&#x2dd;" horiz-adv-x="499" 
d="M129 540l80 150h92l-93 -150h-79zM292 540l80 150h92l-93 -150h-79z" />
    <glyph glyph-name="uni0300" unicode="&#x300;" horiz-adv-x="0" 
d="M-166 690h114l100 -150h-96z" />
    <glyph glyph-name="uni0301" unicode="&#x301;" horiz-adv-x="0" 
d="M-48 540l100 150h114l-118 -150h-96z" />
    <glyph glyph-name="hookabovecmb" unicode="&#x309;" horiz-adv-x="500" 
d="M375 629q0 -34 -25 -56.5t-75 -33.5l-52 -10v59l36 8q18 4 26.5 12t8.5 20q0 15 -11.5 23t-32.5 8q-22 0 -34.5 -9.5t-13.5 -27.5h-80q0 47 35.5 76t92.5 29q56 0 90.5 -27t34.5 -71z" />
    <glyph glyph-name="dotbelowcmb" unicode="&#x323;" horiz-adv-x="500" 
d="M193 -190v114h115v-114h-115z" />
    <glyph glyph-name="commaaccentbelowcmb" unicode="&#x326;" horiz-adv-x="500" 
d="M98 -190l95 140h114l-112 -140h-97z" />
    <glyph glyph-name="uni0374" unicode="&#x374;" horiz-adv-x="236" 
d="M42 540l100 150h114l-118 -150h-96z" />
    <glyph glyph-name="uni0375" unicode="&#x375;" horiz-adv-x="176" 
d="M25 -190l100 150h114l-118 -150h-96z" />
    <glyph glyph-name="uni037E" unicode="&#x37e;" horiz-adv-x="238" 
d="M61 375v121h125v-121h-125zM12 -148l51 269h123l-75 -269h-99z" />
    <glyph glyph-name="tonos" unicode="&#x384;" horiz-adv-x="500" 
d="M202 540l100 150h114l-118 -150h-96z" />
    <glyph glyph-name="dieresistonos" unicode="&#x385;" horiz-adv-x="500" 
d="M202 705l99 110h115l-118 -110h-96zM110 566v107h103v-107h-103zM287 566v107h103v-107h-103z" />
    <glyph glyph-name="Alphatonos" unicode="&#x386;" horiz-adv-x="779" 
d="M364 640h119l277 -640h-124l-65 155h-300l-65 -155h-119zM421 509l-107 -252h214zM19 490l100 150h114l-118 -150h-96z" />
    <glyph glyph-name="anoteleia" unicode="&#x387;" horiz-adv-x="251" 
d="M63 373v121h125v-121h-125z" />
    <glyph glyph-name="Epsilontonos" unicode="&#x388;" horiz-adv-x="774" 
d="M280 0v640h449v-103h-335v-163h305v-100h-305v-171h335v-103h-449zM17 490l100 150h114l-118 -150h-96z" />
    <glyph glyph-name="Etatonos" unicode="&#x389;" horiz-adv-x="924" 
d="M280 0v640h114v-263h333v263h113v-640h-113v276h-333v-276h-114zM17 490l100 150h114l-118 -150h-96z" />
    <glyph glyph-name="Iotatonos" unicode="&#x38a;" horiz-adv-x="478" 
d="M280 0v640h114v-640h-114zM17 490l100 150h114l-118 -150h-96z" />
    <glyph glyph-name="Omicrontonos" unicode="&#x38c;" horiz-adv-x="895" 
d="M521 650q143 0 236.5 -93.5t93.5 -236.5q0 -144 -93.5 -237t-236.5 -93t-236.5 93t-93.5 237q0 143 93.5 236.5t236.5 93.5zM521 95q95 0 154 62t59 163t-59 163.5t-154 62.5t-154 -62.5t-59 -163.5t59 -163t154 -62zM17 490l100 150h114l-118 -150h-96z" />
    <glyph glyph-name="Upsilontonos" unicode="&#x38e;" horiz-adv-x="910" 
d="M776 640h126l-260 -385v-255h-114v255l-258 385h133l186 -283zM17 490l100 150h114l-118 -150h-96z" />
    <glyph glyph-name="Omegatonos" unicode="&#x38f;" horiz-adv-x="926" 
d="M480 0h-259v103h108q-58 46 -88 106.5t-30 130.5q0 137 93 223.5t237 86.5q145 0 237.5 -86.5t92.5 -223.5q0 -71 -30 -131.5t-88 -105.5h109v-103h-260v103q73 36 113 95.5t40 133.5q0 96 -59 155t-155 59q-95 0 -154 -59t-59 -155q0 -74 40 -133.5t112 -95.5v-103z
M17 490l100 150h114l-118 -150h-96z" />
    <glyph glyph-name="iotadieresistonos" unicode="&#x390;" horiz-adv-x="277" 
d="M67 150v344h111v-336q0 -29 13.5 -42.5t42.5 -13.5h24v-102h-27q-85 0 -124.5 35.5t-39.5 114.5zM75 705l99 110h115l-118 -110h-96zM-17 566v107h103v-107h-103zM160 566v107h103v-107h-103z" />
    <glyph glyph-name="Alpha" unicode="&#x391;" horiz-adv-x="711" 
d="M296 640h119l277 -640h-124l-65 155h-300l-65 -155h-119zM353 509l-107 -252h214z" />
    <glyph glyph-name="Beta" unicode="&#x392;" horiz-adv-x="635" 
d="M84 0v640h261q103 0 162.5 -45.5t59.5 -125.5q0 -49 -21 -83.5t-63 -54.5q52 -21 78 -59.5t26 -93.5q0 -84 -59.5 -131t-164.5 -47h-279zM451 457q0 42 -29 64.5t-83 22.5h-141v-173h141q54 0 83 22.5t29 63.5zM471 188q0 44 -30 68t-86 24h-157v-184h157q56 0 86 24
t30 68z" />
    <glyph glyph-name="Gamma" unicode="&#x393;" horiz-adv-x="528" 
d="M84 0v640h423v-103h-309v-537h-114z" />
    <glyph glyph-name="uni0394" unicode="&#x394;" horiz-adv-x="675" 
d="M278 640h119l248 -538v-102h-615v102zM335 513l-183 -411h366z" />
    <glyph glyph-name="Epsilon" unicode="&#x395;" horiz-adv-x="578" 
d="M84 0v640h449v-103h-335v-163h305v-100h-305v-171h335v-103h-449z" />
    <glyph glyph-name="Zeta" unicode="&#x396;" horiz-adv-x="582" 
d="M392 536h-343v104h487v-104l-356 -431h365v-105h-509v105z" />
    <glyph glyph-name="Eta" unicode="&#x397;" horiz-adv-x="728" 
d="M84 0v640h114v-263h333v263h113v-640h-113v276h-333v-276h-114z" />
    <glyph glyph-name="Theta" unicode="&#x398;" horiz-adv-x="748" 
d="M374 650q143 0 236.5 -93.5t93.5 -236.5q0 -144 -93.5 -237t-236.5 -93t-236.5 93t-93.5 237q0 143 93.5 236.5t236.5 93.5zM374 95q95 0 154 62t59 163t-59 163.5t-154 62.5t-154 -62.5t-59 -163.5t59 -163t154 -62zM510 274h-273v100h273v-100z" />
    <glyph glyph-name="Iota" unicode="&#x399;" horiz-adv-x="282" 
d="M84 0v640h114v-640h-114z" />
    <glyph glyph-name="Kappa" unicode="&#x39a;" horiz-adv-x="671" 
d="M84 0v640h114v-262h76l238 262h134v-4l-276 -301l283 -330v-5h-142l-233 277h-80v-277h-114z" />
    <glyph glyph-name="Lambda" unicode="&#x39b;" horiz-adv-x="711" 
d="M296 640h119l277 -640h-124l-215 509l-215 -509h-119z" />
    <glyph glyph-name="Mu" unicode="&#x39c;" horiz-adv-x="849" 
d="M478 53h-111l-157 415l-45 -468h-110l60 640h145l166 -450l166 450h142l61 -640h-116l-46 475z" />
    <glyph glyph-name="Nu" unicode="&#x39d;" horiz-adv-x="747" 
d="M84 0v640h110l359 -461v461h110v-640h-110l-359 460v-460h-110z" />
    <glyph glyph-name="Xi" unicode="&#x39e;" horiz-adv-x="591" 
d="M546 537h-501v103h501v-103zM516 274h-441v100h441v-100zM546 0h-501v103h501v-103z" />
    <glyph glyph-name="Omicron" unicode="&#x39f;" horiz-adv-x="748" 
d="M374 650q143 0 236.5 -93.5t93.5 -236.5q0 -144 -93.5 -237t-236.5 -93t-236.5 93t-93.5 237q0 143 93.5 236.5t236.5 93.5zM374 95q95 0 154 62t59 163t-59 163.5t-154 62.5t-154 -62.5t-59 -163.5t59 -163t154 -62z" />
    <glyph glyph-name="Pi" unicode="&#x3a0;" horiz-adv-x="728" 
d="M84 0v640h560v-640h-113v537h-333v-537h-114z" />
    <glyph glyph-name="Rho" unicode="&#x3a1;" horiz-adv-x="634" 
d="M84 0v640h261q121 0 187 -55.5t66 -157.5t-66 -157.5t-187 -55.5h-147v-214h-114zM482 427q0 55 -34.5 83.5t-99.5 28.5h-150v-224h150q65 0 99.5 28.5t34.5 83.5z" />
    <glyph glyph-name="Sigma" unicode="&#x3a3;" horiz-adv-x="546" 
d="M509 0h-469v103l218 223l-218 211v103h469v-103h-329l187 -180v-67l-187 -187h329v-103z" />
    <glyph glyph-name="Tau" unicode="&#x3a4;" horiz-adv-x="615" 
d="M251 535h-230v105h573v-105h-229v-535h-114v535z" />
    <glyph glyph-name="Upsilon" unicode="&#x3a5;" horiz-adv-x="648" 
d="M514 640h126l-260 -385v-255h-114v255l-258 385h133l186 -283z" />
    <glyph glyph-name="Phi" unicode="&#x3a6;" horiz-adv-x="820" 
d="M353 587v53h114v-53q142 -1 228 -73t86 -194t-86 -194.5t-228 -72.5v-53h-114v53q-142 1 -228 73t-86 194t86 194.5t228 72.5zM156 320q0 -77 52.5 -119.5t146.5 -42.5h1v325h-1q-93 0 -146 -43t-53 -120zM463 158h2q93 0 145.5 42.5t52.5 119.5t-52.5 120t-145.5 43h-2
v-325z" />
    <glyph glyph-name="Chi" unicode="&#x3a7;" horiz-adv-x="657" 
d="M148 0h-129l237 331l-226 309h141l162 -222l156 222h129l-220 -310l241 -330h-141l-177 242z" />
    <glyph glyph-name="Psi" unicode="&#x3a8;" horiz-adv-x="808" 
d="M347 309v331h114v-331q93 11 141.5 58t48.5 128v145h117v-145q0 -125 -81 -201.5t-226 -89.5v-204h-114v204q-144 13 -225 89.5t-81 201.5v145h116v-145q0 -81 48.5 -128t141.5 -58z" />
    <glyph glyph-name="uni03A9" unicode="&#x3a9;" horiz-adv-x="769" 
d="M323 0h-259v103h108q-58 46 -88 106.5t-30 130.5q0 137 93 223.5t237 86.5q145 0 237.5 -86.5t92.5 -223.5q0 -71 -30 -131.5t-88 -105.5h109v-103h-260v103q73 36 113 95.5t40 133.5q0 96 -59 155t-155 59q-95 0 -154 -59t-59 -155q0 -74 40 -133.5t112 -95.5v-103z" />
    <glyph glyph-name="Iotadieresis" unicode="&#x3aa;" horiz-adv-x="282" 
d="M84 0v640h114v-640h-114zM2 727v107h103v-107h-103zM179 727v107h103v-107h-103z" />
    <glyph glyph-name="Upsilondieresis" unicode="&#x3ab;" horiz-adv-x="648" 
d="M514 640h126l-260 -385v-255h-114v255l-258 385h133l186 -283zM185 727v107h103v-107h-103zM362 727v107h103v-107h-103z" />
    <glyph glyph-name="alphatonos" unicode="&#x3ac;" horiz-adv-x="645" 
d="M623 0h-24q-58 0 -94.5 16.5t-53.5 51.5q-32 -38 -75.5 -58t-93.5 -20q-103 0 -172.5 73t-69.5 184t69.5 184t172.5 73q49 0 91 -18.5t74 -54.5l20 63h79v-336q0 -29 13.5 -42.5t42.5 -13.5h21v-102zM298 89q64 0 104.5 44t40.5 114t-40.5 114.5t-104.5 44.5t-105 -44
t-41 -115q0 -70 40.5 -114t105.5 -44zM252 541l100 150h114l-118 -150h-96z" />
    <glyph glyph-name="epsilontonos" unicode="&#x3ad;" horiz-adv-x="543" 
d="M401 159h113q-5 -78 -70.5 -123.5t-172.5 -45.5q-100 0 -162.5 40.5t-62.5 106.5q0 38 22.5 67.5t64.5 47.5q-40 16 -61.5 44t-21.5 63q0 67 59 106t158 39q104 0 167.5 -44.5t69.5 -122.5h-114q-5 38 -36 57.5t-86 19.5q-49 0 -77.5 -16.5t-28.5 -45.5t25 -44.5
t71 -15.5h104v-82h-103q-49 0 -75.5 -17t-26.5 -48t30 -48t85 -17q59 0 91.5 20t37.5 59zM211 540l100 150h114l-118 -150h-96z" />
    <glyph glyph-name="etatonos" unicode="&#x3ae;" horiz-adv-x="606" 
d="M309 405q-57 0 -90.5 -34t-33.5 -91v-280h-111v494h80l19 -61q26 34 67.5 52.5t91.5 18.5q94 0 152.5 -57t58.5 -150v-487h-111v470q0 58 -33.5 91.5t-89.5 33.5zM264 540l100 150h114l-118 -150h-96z" />
    <glyph glyph-name="iotatonos" unicode="&#x3af;" horiz-adv-x="277" 
d="M67 150v344h111v-336q0 -29 13.5 -42.5t42.5 -13.5h24v-102h-27q-85 0 -124.5 35.5t-39.5 114.5zM75 540l100 150h114l-118 -150h-96z" />
    <glyph glyph-name="upsilondieresistonos" unicode="&#x3b0;" horiz-adv-x="574" 
d="M522 249q0 -124 -60.5 -191.5t-170.5 -67.5q-105 0 -167.5 57.5t-62.5 154.5v292h111v-281q0 -58 32 -91t87 -33q60 0 90 40.5t30 120.5q0 52 -10 114t-30 130h111q20 -72 30 -134t10 -111zM228 705l99 110h115l-118 -110h-96zM136 566v107h103v-107h-103zM313 566v107
h103v-107h-103z" />
    <glyph glyph-name="alpha" unicode="&#x3b1;" horiz-adv-x="645" 
d="M623 0h-24q-58 0 -94.5 16.5t-53.5 51.5q-32 -38 -75.5 -58t-93.5 -20q-103 0 -172.5 73t-69.5 184t69.5 184t172.5 73q49 0 91 -18.5t74 -54.5l20 63h79v-336q0 -29 13.5 -42.5t42.5 -13.5h21v-102zM298 89q64 0 104.5 44t40.5 114t-40.5 114.5t-104.5 44.5t-105 -44
t-41 -115q0 -70 40.5 -114t105.5 -44z" />
    <glyph glyph-name="beta" unicode="&#x3b2;" horiz-adv-x="627" 
d="M591 195q0 -92 -64 -148.5t-169 -56.5q-52 0 -96 18t-77 52v-250h-111v659q0 105 67 168t179 63q103 0 167 -52.5t64 -136.5q0 -48 -21.5 -85t-62.5 -59q60 -21 92 -65.5t32 -106.5zM352 307h-93v99h73q48 0 77.5 27t29.5 71q0 46 -31.5 72t-87.5 26q-64 0 -99.5 -35
t-35.5 -98v-229q0 -67 44.5 -109t115.5 -42q62 0 98 30t36 82q0 50 -33.5 78t-93.5 28z" />
    <glyph glyph-name="gamma" unicode="&#x3b3;" horiz-adv-x="555" 
d="M220 -190v190l-210 494h116l155 -369q46 91 83 183t65 186h113q-39 -121 -92 -244.5t-119 -249.5v-190h-111z" />
    <glyph glyph-name="delta" unicode="&#x3b4;" horiz-adv-x="595" 
d="M560 229q0 -105 -74 -172t-189 -67t-188.5 66t-73.5 170q0 91 60.5 153.5t159.5 73.5l-181 141v96h448l-26 -95h-271l162 -118q102 -73 137.5 -125.5t35.5 -122.5zM297 89q68 0 109.5 38t41.5 102q0 61 -41.5 98t-109.5 37t-109 -37t-41 -98q0 -64 41 -102t109 -38z" />
    <glyph glyph-name="epsilon" unicode="&#x3b5;" horiz-adv-x="543" 
d="M401 159h113q-5 -78 -70.5 -123.5t-172.5 -45.5q-100 0 -162.5 40.5t-62.5 106.5q0 38 22.5 67.5t64.5 47.5q-40 16 -61.5 44t-21.5 63q0 67 59 106t158 39q104 0 167.5 -44.5t69.5 -122.5h-114q-5 38 -36 57.5t-86 19.5q-49 0 -77.5 -16.5t-28.5 -45.5t25 -44.5
t71 -15.5h104v-82h-103q-49 0 -75.5 -17t-26.5 -48t30 -48t85 -17q59 0 91.5 20t37.5 59z" />
    <glyph glyph-name="zeta" unicode="&#x3b6;" horiz-adv-x="473" 
d="M59 690h409v-95q-171 -99 -245 -174t-74 -152q0 -49 27 -82t80 -50l78 -24q68 -21 104 -62.5t36 -99.5q0 -66 -47 -103.5t-127 -37.5h-94v99h87q36 0 52.5 10.5t16.5 32.5q0 20 -15.5 34t-50.5 25l-88 27q-83 25 -127 81t-44 135q0 98 69.5 185.5t199.5 155.5h-247v95z
" />
    <glyph glyph-name="eta" unicode="&#x3b7;" horiz-adv-x="606" 
d="M309 405q-57 0 -90.5 -34t-33.5 -91v-280h-111v494h80l19 -61q26 34 67.5 52.5t91.5 18.5q94 0 152.5 -57t58.5 -150v-487h-111v470q0 58 -33.5 91.5t-89.5 33.5z" />
    <glyph glyph-name="theta" unicode="&#x3b8;" horiz-adv-x="622" 
d="M311 700q121 0 191.5 -94.5t70.5 -260.5t-70.5 -260.5t-191.5 -94.5t-191.5 94.5t-70.5 260.5t70.5 260.5t191.5 94.5zM311 602q-67 0 -107 -56t-46 -162h306q-6 106 -46 162t-107 56zM311 89q68 0 107.5 56t45.5 161h-306q6 -105 45.5 -161t107.5 -56z" />
    <glyph glyph-name="iota" unicode="&#x3b9;" horiz-adv-x="277" 
d="M67 150v344h111v-336q0 -29 13.5 -42.5t42.5 -13.5h24v-102h-27q-85 0 -124.5 35.5t-39.5 114.5z" />
    <glyph glyph-name="kappa" unicode="&#x3ba;" horiz-adv-x="573" 
d="M74 0v494h111v-195h72l111 135q27 35 55.5 47.5t76.5 12.5h35v-102h-41q-17 0 -28.5 -5t-21.5 -16l-96 -115l205 -251v-5h-132l-165 204h-71v-204h-111z" />
    <glyph glyph-name="lambda" unicode="&#x3bb;" horiz-adv-x="597" 
d="M553 102h25v-102h-27q-67 0 -101 18t-54 63l-120 271l-149 -352h-113l206 478l-27 61q-11 26 -27.5 37.5t-43.5 11.5h-39v102h42q68 0 101.5 -18t53.5 -63l203 -457q12 -27 28 -38.5t42 -11.5z" />
    <glyph glyph-name="uni03BC" unicode="&#x3bc;" horiz-adv-x="629" 
d="M185 32v-222h-111v684h111v-281q0 -58 31.5 -91t86.5 -33q56 0 87.5 33t31.5 91v281h111v-336q0 -29 13.5 -42.5t42.5 -13.5h20v-102h-24q-54 0 -89 14t-53 43q-24 -33 -60 -50t-80 -17q-34 0 -64 10.5t-54 31.5z" />
    <glyph glyph-name="nu" unicode="&#x3bd;" horiz-adv-x="556" 
d="M336 0h-120l-206 494h116l155 -379q47 99 84 193.5t64 185.5h113q-39 -122 -90.5 -246t-115.5 -248z" />
    <glyph glyph-name="xi" unicode="&#x3be;" horiz-adv-x="487" 
d="M138 329q-41 16 -62 44.5t-21 66.5q0 52 44.5 89t139.5 66h-189v95h412v-95q-154 -32 -224.5 -66.5t-70.5 -82.5q0 -31 27.5 -47.5t78.5 -16.5h155v-100h-177q-47 0 -72 -18.5t-25 -53.5q0 -30 25 -49.5t82 -32.5l78 -17q69 -15 104.5 -55.5t35.5 -104.5
q0 -66 -47 -103.5t-127 -37.5h-94v99h87q35 0 52 10.5t17 32.5q0 21 -17 35t-50 22l-87 20q-84 20 -127.5 63t-43.5 106q0 46 24.5 80t71.5 51z" />
    <glyph glyph-name="omicron" unicode="&#x3bf;" horiz-adv-x="603" 
d="M301 504q115 0 189 -72t74 -185t-74 -185t-189 -72t-188.5 72t-73.5 185t73.5 185t188.5 72zM301 89q67 0 109 43.5t42 114.5t-42 115t-109 44t-108.5 -44t-41.5 -115t41.5 -114.5t108.5 -43.5z" />
    <glyph glyph-name="pi" unicode="&#x3c0;" horiz-adv-x="654" 
d="M212 401v-401h-111v401h-85v93h595v-93h-89v-243q0 -29 13.5 -42.5t42.5 -13.5h33v-102h-37q-85 0 -124 36t-39 114v251h-199z" />
    <glyph glyph-name="rho" unicode="&#x3c1;" horiz-adv-x="611" 
d="M58 -190v437q0 114 70.5 185.5t182.5 71.5q114 0 187.5 -72t73.5 -185q0 -111 -71 -184t-175 -73q-47 0 -86.5 16.5t-69.5 48.5v-245h-112zM311 406q-66 0 -108 -44t-42 -115q0 -70 42 -114t108 -44q65 0 107 44t42 114t-42 114.5t-107 44.5z" />
    <glyph glyph-name="uni03C2" unicode="&#x3c2;" horiz-adv-x="560" 
d="M38 264q0 107 69.5 173.5t179.5 66.5q102 0 171.5 -58t83.5 -154h-114q-12 53 -50 83.5t-91 30.5q-59 0 -98 -38.5t-39 -97.5q0 -48 27.5 -82.5t78.5 -50.5l78 -24q69 -21 105 -62.5t36 -99.5q0 -66 -47 -103.5t-127 -37.5h-95v99h88q35 0 52 10.5t17 32.5q0 20 -16 34
t-51 25l-87 27q-82 24 -126.5 83t-44.5 143z" />
    <glyph glyph-name="sigma" unicode="&#x3c3;" horiz-adv-x="640" 
d="M564 234q0 -106 -74.5 -175t-188.5 -69q-115 0 -188.5 70.5t-73.5 181.5t73.5 181.5t188.5 70.5h324l-32 -93h-110q39 -28 60 -71t21 -96zM301 89q67 0 109 42t42 111t-42 111.5t-109 42.5t-108.5 -42.5t-41.5 -111.5t41.5 -111t108.5 -42z" />
    <glyph glyph-name="tau" unicode="&#x3c4;" horiz-adv-x="493" 
d="M183 401h-167v93h460v-93h-182v-243q0 -29 13.5 -42.5t42.5 -13.5h64v-102h-67q-85 0 -124.5 35.5t-39.5 114.5v251z" />
    <glyph glyph-name="upsilon" unicode="&#x3c5;" horiz-adv-x="574" 
d="M522 249q0 -124 -60.5 -191.5t-170.5 -67.5q-105 0 -167.5 57.5t-62.5 154.5v292h111v-281q0 -58 32 -91t87 -33q60 0 90 40.5t30 120.5q0 52 -10 114t-30 130h111q20 -72 30 -134t10 -111z" />
    <glyph glyph-name="phi" unicode="&#x3c6;" horiz-adv-x="719" 
d="M306 494h92q135 0 208 -65.5t73 -182.5q0 -109 -68 -174.5t-194 -78.5v-183h-111v182q-124 12 -190.5 79.5t-66.5 182.5q0 48 10 109t30 131h111q-20 -68 -30 -128.5t-10 -110.5q0 -73 36 -113t110 -50v402zM427 395h-10v-302q75 11 113 49.5t38 104.5t-39.5 107
t-101.5 41z" />
    <glyph glyph-name="chi" unicode="&#x3c7;" horiz-adv-x="560" 
d="M215 413l83 -147l146 228h113l-205 -321l120 -211q17 -28 32 -39t38 -11h25v-102h-27q-61 0 -95 17.5t-60 63.5l-106 186l-171 -267h-113l231 361l-98 172q-15 26 -31 37.5t-40 11.5h-39v102h42q63 0 96 -17.5t59 -63.5z" />
    <glyph glyph-name="psi" unicode="&#x3c8;" horiz-adv-x="721" 
d="M306 93v597h112v-597q73 11 108 53.5t35 120.5q0 47 -9.5 102t-30.5 125h111q21 -73 30.5 -129t9.5 -102q0 -119 -65.5 -188.5t-188.5 -81.5v-183h-112v183q-120 13 -184.5 78t-64.5 175v248h111v-237q0 -71 34.5 -112t103.5 -52z" />
    <glyph glyph-name="omega" unicode="&#x3c9;" horiz-adv-x="826" 
d="M413 82q-23 -45 -63.5 -68.5t-94.5 -23.5q-94 0 -148 66.5t-54 186.5q0 53 11 117t32 134h111q-21 -67 -32 -131t-11 -119q0 -78 24 -116.5t73 -38.5q45 0 71 31.5t26 86.5v141h111v-141q0 -55 25.5 -86.5t70.5 -31.5q49 0 73 38.5t24 116.5q0 55 -11 119t-32 131h111
q21 -67 32 -131.5t11 -119.5q0 -120 -54 -186.5t-148 -66.5q-54 0 -94.5 23.5t-63.5 68.5z" />
    <glyph glyph-name="iotadieresis" unicode="&#x3ca;" horiz-adv-x="277" 
d="M67 150v344h111v-336q0 -29 13.5 -42.5t42.5 -13.5h24v-102h-27q-85 0 -124.5 35.5t-39.5 114.5zM-17 577v107h103v-107h-103zM160 577v107h103v-107h-103z" />
    <glyph glyph-name="upsilondieresis" unicode="&#x3cb;" horiz-adv-x="574" 
d="M522 249q0 -124 -60.5 -191.5t-170.5 -67.5q-105 0 -167.5 57.5t-62.5 154.5v292h111v-281q0 -58 32 -91t87 -33q60 0 90 40.5t30 120.5q0 52 -10 114t-30 130h111q20 -72 30 -134t10 -111zM136 577v107h103v-107h-103zM313 577v107h103v-107h-103z" />
    <glyph glyph-name="omicrontonos" unicode="&#x3cc;" horiz-adv-x="603" 
d="M301 504q115 0 189 -72t74 -185t-74 -185t-189 -72t-188.5 72t-73.5 185t73.5 185t188.5 72zM301 89q67 0 109 43.5t42 114.5t-42 115t-109 44t-108.5 -44t-41.5 -115t41.5 -114.5t108.5 -43.5zM254 540l100 150h114l-118 -150h-96z" />
    <glyph glyph-name="upsilontonos" unicode="&#x3cd;" horiz-adv-x="574" 
d="M522 249q0 -124 -60.5 -191.5t-170.5 -67.5q-105 0 -167.5 57.5t-62.5 154.5v292h111v-281q0 -58 32 -91t87 -33q60 0 90 40.5t30 120.5q0 52 -10 114t-30 130h111q20 -72 30 -134t10 -111zM228 540l100 150h114l-118 -150h-96z" />
    <glyph glyph-name="omegatonos" unicode="&#x3ce;" horiz-adv-x="826" 
d="M413 82q-23 -45 -63.5 -68.5t-94.5 -23.5q-94 0 -148 66.5t-54 186.5q0 53 11 117t32 134h111q-21 -67 -32 -131t-11 -119q0 -78 24 -116.5t73 -38.5q45 0 71 31.5t26 86.5v141h111v-141q0 -55 25.5 -86.5t70.5 -31.5q49 0 73 38.5t24 116.5q0 55 -11 119t-32 131h111
q21 -67 32 -131.5t11 -119.5q0 -120 -54 -186.5t-148 -66.5q-54 0 -94.5 23.5t-63.5 68.5zM349 540l100 150h114l-118 -150h-96z" />
    <glyph glyph-name="Kaisymbol" unicode="&#x3cf;" horiz-adv-x="671" 
d="M653 0l-169 -200l-81 72l109 127l-234 278h-80v-277h-114v640h114v-262h76l238 262h134v-4l-276 -301l283 -330v-5z" />
    <glyph glyph-name="uni03D5" unicode="&#x3d5;" horiz-adv-x="720" 
d="M305 504v186h111v-186q116 -1 191 -73t75 -184q0 -113 -75 -185t-191 -72v-180h-111v180q-116 1 -191 73t-75 184q0 113 75 185t191 72zM151 247q0 -71 43.5 -114.5t113.5 -43.5h3v317h-3q-70 0 -113.5 -44t-43.5 -115zM410 89h3q70 0 113 43.5t43 114.5t-43 115t-113 44
h-3v-317z" />
    <glyph glyph-name="kaisymbol" unicode="&#x3d7;" horiz-adv-x="573" 
d="M553 0l-167 -200l-77 71l111 131l-164 202h-71v-204h-111v494h111v-195h72l111 135q27 35 55.5 47.5t76.5 12.5h35v-102h-41q-17 0 -28.5 -5t-21.5 -16l-96 -115l205 -251v-5z" />
    <glyph glyph-name="uni0400" unicode="&#x400;" horiz-adv-x="578" 
d="M84 0v640h449v-103h-335v-163h305v-100h-305v-171h335v-103h-449zM174 845h114l100 -150h-96z" />
    <glyph glyph-name="afii10023" unicode="&#x401;" horiz-adv-x="578" 
d="M84 0v640h449v-103h-335v-163h305v-100h-305v-171h335v-103h-449zM172 733v107h103v-107h-103zM349 733v107h103v-107h-103z" />
    <glyph glyph-name="afii10051" unicode="&#x402;" horiz-adv-x="782" 
d="M746 198q0 -90 -58.5 -144t-152.5 -54h-34v99h28q47 0 75 26.5t28 72.5q0 51 -35 81t-94 30q-62 0 -100 -34t-38 -91v-184h-114v535h-230v105h573v-105h-229v-187q29 29 70.5 44.5t91.5 15.5q97 0 158 -58t61 -152z" />
    <glyph glyph-name="afii10052" unicode="&#x403;" horiz-adv-x="528" 
d="M84 0v640h423v-103h-309v-537h-114zM269 695l100 150h114l-118 -150h-96z" />
    <glyph glyph-name="afii10053" unicode="&#x404;" horiz-adv-x="728" 
d="M470 377v-101h-309q13 -83 69 -132t139 -49q78 0 131.5 43t70.5 120h119q-20 -120 -108 -194t-213 -74q-140 0 -232.5 93.5t-92.5 236.5t92.5 236.5t232.5 93.5q124 0 212.5 -74t108.5 -194h-119q-18 77 -71.5 120.5t-130.5 43.5q-79 0 -134.5 -45.5t-71.5 -123.5h307z
" />
    <glyph glyph-name="afii10054" unicode="&#x405;" horiz-adv-x="603" 
d="M315 91q58 0 92 22.5t34 62.5q0 36 -28.5 55.5t-91.5 29.5l-57 8q-102 16 -157 65.5t-55 125.5q0 87 64.5 138.5t173.5 51.5q112 0 180.5 -55t72.5 -149h-117q-4 50 -39 77t-97 27q-57 0 -89.5 -22.5t-32.5 -61.5q0 -37 31.5 -57t106.5 -31l57 -9q97 -14 147 -60.5
t50 -122.5q0 -90 -66 -143t-181 -53q-118 0 -191.5 59t-75.5 152h119q2 -49 44 -79.5t106 -30.5z" />
    <glyph glyph-name="afii10055" unicode="&#x406;" horiz-adv-x="282" 
d="M84 0v640h114v-640h-114z" />
    <glyph glyph-name="afii10056" unicode="&#x407;" horiz-adv-x="282" 
d="M18 727v107h96v-107h-96zM168 727v107h96v-107h-96zM84 0v640h114v-640h-114z" />
    <glyph glyph-name="afii10057" unicode="&#x408;" horiz-adv-x="400" 
d="M211 197v443h114v-451q0 -92 -51.5 -140.5t-147.5 -48.5h-104v102h85q57 0 80.5 21.5t23.5 73.5z" />
    <glyph glyph-name="afii10058" unicode="&#x409;" horiz-adv-x="1047" 
d="M114 193l38 447h471v-231h149q115 0 177 -53t62 -152q0 -98 -62 -151t-177 -53h-263v537h-254l-31 -350q-11 -105 -49.5 -146t-124.5 -41h-28v103h18q36 0 52 19t22 71zM896 204q0 54 -31.5 81.5t-93.5 27.5h-148v-217h148q61 0 93 27.5t32 80.5z" />
    <glyph glyph-name="afii10059" unicode="&#x40a;" horiz-adv-x="1068" 
d="M84 0v640h114v-263h333v263h113v-265h167q107 0 164.5 -48.5t57.5 -138.5q0 -91 -57.5 -139.5t-164.5 -48.5h-280v276h-333v-276h-114zM918 188q0 45 -28 68t-81 23h-165v-183h165q53 0 81 23.5t28 68.5z" />
    <glyph glyph-name="afii10060" unicode="&#x40b;" horiz-adv-x="779" 
d="M492 309q-58 0 -92.5 -34t-34.5 -91v-184h-114v535h-230v105h573v-105h-229v-185q27 28 65.5 43t84.5 15q97 0 157 -57t60 -150v-201h-114v184q0 57 -34.5 91t-91.5 34z" />
    <glyph glyph-name="afii10061" unicode="&#x40c;" horiz-adv-x="671" 
d="M301 695l100 150h114l-118 -150h-96zM84 0v640h114v-262h76l238 262h134v-4l-276 -301l283 -330v-5h-142l-233 277h-80v-277h-114z" />
    <glyph glyph-name="uni040D" unicode="&#x40d;" horiz-adv-x="742" 
d="M84 640h114v-490l330 490h130v-640h-113v490l-330 -490h-131v640zM210 845h114l100 -150h-96z" />
    <glyph glyph-name="afii10062" unicode="&#x40e;" horiz-adv-x="673" 
d="M663 640l-368 -640h-122l111 194l-275 446h135l204 -335l192 335h123zM344 694q-72 0 -112.5 38.5t-40.5 108.5h89q0 -39 15.5 -58t48.5 -19t48.5 19t15.5 58h89q0 -70 -40.5 -108.5t-112.5 -38.5z" />
    <glyph glyph-name="afii10145" unicode="&#x40f;" horiz-adv-x="708" 
d="M412 -160h-114v160h-214v640h114v-537h313v537h113v-640h-212v-160z" />
    <glyph glyph-name="afii10017" unicode="&#x410;" horiz-adv-x="711" 
d="M296 640h119l277 -640h-124l-65 155h-300l-65 -155h-119zM353 509l-107 -252h214z" />
    <glyph glyph-name="afii10018" unicode="&#x411;" horiz-adv-x="622" 
d="M587 194q0 -93 -61 -143.5t-173 -50.5h-269v640h439v-96h-325v-155h155q112 0 173 -51t61 -144zM471 194q0 49 -30 74t-89 25h-154v-197h154q58 0 88.5 25t30.5 73z" />
    <glyph glyph-name="afii10019" unicode="&#x412;" horiz-adv-x="635" 
d="M84 0v640h261q103 0 162.5 -45.5t59.5 -125.5q0 -49 -21 -83.5t-63 -54.5q52 -21 78 -59.5t26 -93.5q0 -84 -59.5 -131t-164.5 -47h-279zM451 457q0 42 -29 64.5t-83 22.5h-141v-173h141q54 0 83 22.5t29 63.5zM471 188q0 44 -30 68t-86 24h-157v-184h157q56 0 86 24
t30 68z" />
    <glyph glyph-name="afii10020" unicode="&#x413;" horiz-adv-x="528" 
d="M84 0v640h423v-103h-309v-537h-114z" />
    <glyph glyph-name="afii10021" unicode="&#x414;" horiz-adv-x="716" 
d="M136 -160h-114v263h63q15 19 24.5 51.5t14.5 79.5l44 406h450v-537h68v-263h-114v160h-436v-160zM268 537l-33 -297q-5 -43 -13 -77t-19 -60h301v434h-236z" />
    <glyph glyph-name="afii10022" unicode="&#x415;" horiz-adv-x="578" 
d="M84 0v640h449v-103h-335v-163h305v-100h-305v-171h335v-103h-449z" />
    <glyph glyph-name="afii10024" unicode="&#x416;" horiz-adv-x="942" 
d="M413 378v262h114v-262h66l194 262h128v-4l-226 -301l233 -330v-5h-137l-191 277h-67v-277h-114v277h-65l-193 -277h-136v5l236 324l-229 307v4h128l194 -262h65z" />
    <glyph glyph-name="afii10025" unicode="&#x417;" horiz-adv-x="609" 
d="M454 329q52 -22 79.5 -61.5t27.5 -91.5q0 -82 -72 -134t-187 -52t-186.5 57.5t-78.5 156.5h114q5 -58 44 -88t106 -30t105 25.5t38 70.5q0 49 -33.5 73.5t-100.5 24.5h-108v91h99q63 0 95.5 22.5t32.5 67.5q0 44 -34.5 68.5t-97.5 24.5q-64 0 -102.5 -31.5t-40.5 -86.5
h-114q7 99 76.5 156.5t181.5 57.5t180 -50.5t68 -133.5q0 -46 -24 -81.5t-68 -55.5z" />
    <glyph glyph-name="afii10026" unicode="&#x418;" horiz-adv-x="742" 
d="M84 640h114v-490l330 490h130v-640h-113v490l-330 -490h-131v640z" />
    <glyph glyph-name="afii10027" unicode="&#x419;" horiz-adv-x="742" 
d="M84 640h114v-490l330 490h130v-640h-113v490l-330 -490h-131v640zM376 694q-72 0 -112.5 38.5t-40.5 108.5h89q0 -39 15.5 -58t48.5 -19t48.5 19t15.5 58h89q0 -70 -40.5 -108.5t-112.5 -38.5z" />
    <glyph glyph-name="afii10028" unicode="&#x41a;" horiz-adv-x="671" 
d="M84 0v640h114v-262h76l238 262h134v-4l-276 -301l283 -330v-5h-142l-233 277h-80v-277h-114z" />
    <glyph glyph-name="afii10029" unicode="&#x41b;" horiz-adv-x="707" 
d="M114 193l38 447h471v-640h-114v537h-254l-31 -350q-11 -105 -49.5 -146t-124.5 -41h-28v103h18q36 0 52 19t22 71z" />
    <glyph glyph-name="afii10030" unicode="&#x41c;" horiz-adv-x="849" 
d="M478 53h-111l-157 415l-45 -468h-110l60 640h145l166 -450l166 450h142l61 -640h-116l-46 475z" />
    <glyph glyph-name="afii10031" unicode="&#x41d;" horiz-adv-x="728" 
d="M84 0v640h114v-263h333v263h113v-640h-113v276h-333v-276h-114z" />
    <glyph glyph-name="afii10032" unicode="&#x41e;" horiz-adv-x="748" 
d="M374 650q143 0 236.5 -93.5t93.5 -236.5q0 -144 -93.5 -237t-236.5 -93t-236.5 93t-93.5 237q0 143 93.5 236.5t236.5 93.5zM374 95q95 0 154 62t59 163t-59 163.5t-154 62.5t-154 -62.5t-59 -163.5t59 -163t154 -62z" />
    <glyph glyph-name="afii10033" unicode="&#x41f;" horiz-adv-x="728" 
d="M84 0v640h560v-640h-113v537h-333v-537h-114z" />
    <glyph glyph-name="afii10034" unicode="&#x420;" horiz-adv-x="634" 
d="M84 0v640h261q121 0 187 -55.5t66 -157.5t-66 -157.5t-187 -55.5h-147v-214h-114zM482 427q0 55 -34.5 83.5t-99.5 28.5h-150v-224h150q65 0 99.5 28.5t34.5 83.5z" />
    <glyph glyph-name="afii10035" unicode="&#x421;" horiz-adv-x="728" 
d="M571 258h119q-20 -120 -108 -194t-212 -74q-141 0 -233.5 93.5t-92.5 236.5t92.5 236.5t233.5 93.5q124 0 212 -73.5t108 -194.5h-119q-18 77 -71 120.5t-130 43.5q-93 0 -151 -62t-58 -164q0 -101 58 -163t151 -62q78 0 131 43t70 120z" />
    <glyph glyph-name="afii10036" unicode="&#x422;" horiz-adv-x="615" 
d="M251 535h-230v105h573v-105h-229v-535h-114v535z" />
    <glyph glyph-name="afii10037" unicode="&#x423;" horiz-adv-x="673" 
d="M663 640l-368 -640h-122l111 194l-275 446h135l204 -335l192 335h123z" />
    <glyph glyph-name="afii10038" unicode="&#x424;" horiz-adv-x="820" 
d="M353 587v53h114v-53q142 -1 228 -73t86 -194t-86 -194.5t-228 -72.5v-53h-114v53q-142 1 -228 73t-86 194t86 194.5t228 72.5zM156 320q0 -77 52.5 -119.5t146.5 -42.5h1v325h-1q-93 0 -146 -43t-53 -120zM463 158h2q93 0 145.5 42.5t52.5 119.5t-52.5 120t-145.5 43h-2
v-325z" />
    <glyph glyph-name="afii10039" unicode="&#x425;" horiz-adv-x="657" 
d="M148 0h-129l237 331l-226 309h141l162 -222l156 222h129l-220 -310l241 -330h-141l-177 242z" />
    <glyph glyph-name="afii10040" unicode="&#x426;" horiz-adv-x="722" 
d="M693 -160h-114v160h-495v640h114v-537h313v537h113v-537h69v-263z" />
    <glyph glyph-name="afii10041" unicode="&#x427;" horiz-adv-x="667" 
d="M297 209q-122 0 -186 59t-64 171v201h114v-190q0 -71 37 -103.5t116 -32.5q37 0 76.5 6.5t78.5 18.5v301h114v-640h-114v236q-42 -13 -86.5 -20t-85.5 -7z" />
    <glyph glyph-name="afii10042" unicode="&#x428;" horiz-adv-x="997" 
d="M442 103v537h113v-537h244v537h114v-640h-829v640h114v-537h244z" />
    <glyph glyph-name="afii10043" unicode="&#x429;" horiz-adv-x="1011" 
d="M442 103v537h113v-537h244v537h114v-537h69v-263h-114v160h-784v640h114v-537h244z" />
    <glyph glyph-name="afii10044" unicode="&#x42a;" horiz-adv-x="694" 
d="M658 204q0 -98 -63 -151t-179 -53h-260v544h-136v96h249v-231h147q117 0 179.5 -53t62.5 -152zM543 204q0 53 -32.5 81t-95.5 28h-146v-217h146q62 0 95 28t33 80z" />
    <glyph glyph-name="afii10045" unicode="&#x42b;" horiz-adv-x="856" 
d="M658 0v640h114v-640h-114zM587 204q0 -98 -62.5 -151t-177.5 -53h-263v640h114v-231h149q115 0 177.5 -53t62.5 -152zM471 204q0 54 -31.5 81.5t-93.5 27.5h-148v-217h148q61 0 93 27.5t32 80.5z" />
    <glyph glyph-name="afii10046" unicode="&#x42c;" horiz-adv-x="623" 
d="M587 204q0 -98 -62.5 -151t-177.5 -53h-263v640h114v-231h149q115 0 177.5 -53t62.5 -152zM471 204q0 54 -31.5 81.5t-93.5 27.5h-148v-217h148q61 0 93 27.5t32 80.5z" />
    <glyph glyph-name="afii10047" unicode="&#x42d;" horiz-adv-x="728" 
d="M359 -10q-125 0 -213 74t-108 194h119q17 -77 70.5 -120t131.5 -43q83 0 139 49t69 132h-309v101h307q-16 78 -71.5 123.5t-134.5 45.5q-77 0 -130.5 -43.5t-71.5 -120.5h-119q20 120 108.5 194t212.5 74q140 0 232.5 -93.5t92.5 -236.5t-92.5 -236.5t-232.5 -93.5z" />
    <glyph glyph-name="afii10048" unicode="&#x42e;" horiz-adv-x="1005" 
d="M84 0v640h114v-263h107q19 122 109 197.5t217 75.5q143 0 236.5 -93.5t93.5 -236.5q0 -144 -93.5 -237t-236.5 -93q-131 0 -222 79.5t-105 206.5h-106v-276h-114zM631 95q95 0 154 62t59 163t-59 163.5t-154 62.5t-154 -62.5t-59 -163.5t59 -163t154 -62z" />
    <glyph glyph-name="afii10049" unicode="&#x42f;" horiz-adv-x="649" 
d="M289 223l-126 -223h-124l142 241q-64 23 -98 72t-34 118q0 99 65 154t181 55h270v-640h-114v223h-162zM165 430q0 -52 33.5 -80.5t93.5 -28.5h159v218h-159q-61 0 -94 -28.5t-33 -80.5z" />
    <glyph glyph-name="afii10065" unicode="&#x430;" horiz-adv-x="627" 
d="M553 494v-494h-80l-20 64q-31 -36 -74.5 -55t-93.5 -19q-104 0 -175 73t-71 184t71 184t175 73q50 0 93.5 -19t74.5 -55l20 64h80zM301 89q65 0 107 44t42 114t-42 114.5t-107 44.5q-66 0 -107.5 -44t-41.5 -115t41.5 -114.5t107.5 -43.5z" />
    <glyph glyph-name="afii10066" unicode="&#x431;" horiz-adv-x="611" 
d="M56 245v202q0 119 70.5 181t205.5 62h193l-25 -93h-165q-87 0 -129 -37t-42 -114v-48q29 39 73.5 60.5t98.5 21.5q103 0 170 -68.5t67 -175.5q0 -109 -72 -177.5t-187 -68.5q-117 0 -187.5 70.5t-70.5 184.5zM314 382q-66 0 -107 -40.5t-41 -106.5t40.5 -106t107.5 -40
q66 0 106.5 40t40.5 106t-40.5 106.5t-106.5 40.5z" />
    <glyph glyph-name="afii10067" unicode="&#x432;" horiz-adv-x="578" 
d="M74 0v494h262q84 0 132.5 -36t48.5 -98q0 -36 -15.5 -62t-45.5 -42q39 -16 59 -45.5t20 -70.5q0 -66 -48.5 -103t-134.5 -37h-278zM406 351q0 29 -20 44.5t-56 15.5h-147v-119h147q37 0 56.5 15t19.5 44zM424 148q0 31 -20.5 47t-58.5 16h-162v-126h162q39 0 59 16t20 47
z" />
    <glyph glyph-name="afii10068" unicode="&#x433;" horiz-adv-x="429" 
d="M74 0v494h347l-32 -93h-204v-401h-111z" />
    <glyph glyph-name="afii10069" unicode="&#x434;" horiz-adv-x="601" 
d="M127 -150h-107v243h41q14 22 20 50.5t9 75.5l18 275h403v-401h66v-243h-108v150h-342v-150zM205 401l-13 -189q-3 -40 -9 -69.5t-16 -49.5h233v308h-195z" />
    <glyph glyph-name="afii10070" unicode="&#x435;" horiz-adv-x="582" 
d="M427 166h111q-14 -79 -79 -127.5t-159 -48.5q-115 0 -187.5 72t-72.5 186t70.5 185t183.5 71q109 0 178 -69t69 -180q0 -6 -0.5 -16t-1.5 -21h-389q7 -64 47 -99t103 -35q49 0 82.5 22t44.5 60zM291 412q-57 0 -93 -30t-46 -87h280q-6 54 -44.5 85.5t-96.5 31.5z" />
    <glyph glyph-name="afii10072" unicode="&#x436;" horiz-adv-x="815" 
d="M351 299l1 195h111v-195h59l145 195h123v-5l-174 -232l185 -252v-5h-132l-148 204h-58v-204h-113l1 204h-59l-149 -204h-129v5l188 251l-177 233v5h123l144 -195h59z" />
    <glyph glyph-name="afii10073" unicode="&#x437;" horiz-adv-x="540" 
d="M405 254q45 -17 69.5 -47t24.5 -70q0 -66 -62.5 -106.5t-162.5 -40.5q-107 0 -172.5 45.5t-70.5 123.5h113q5 -39 37.5 -59t91.5 -20q55 0 85 17t30 48t-26.5 48t-75.5 17h-103v82h92q46 0 71 15.5t25 44.5t-28 45.5t-76 16.5q-54 0 -84 -19.5t-36 -57.5h-113
q6 77 69 122t165 45q98 0 156.5 -39t58.5 -106q0 -34 -20 -61t-58 -44z" />
    <glyph glyph-name="afii10074" unicode="&#x438;" horiz-adv-x="617" 
d="M74 0v494h111v-360l229 360h129v-494h-111v360l-228 -360h-130z" />
    <glyph glyph-name="afii10075" unicode="&#x439;" horiz-adv-x="617" 
d="M74 0v494h111v-360l229 360h129v-494h-111v360l-228 -360h-130zM308 540q-72 0 -112.5 38.5t-40.5 108.5h89q0 -39 15.5 -58t48.5 -19t48.5 19t15.5 58h89q0 -70 -40.5 -108.5t-112.5 -38.5z" />
    <glyph glyph-name="afii10076" unicode="&#x43a;" horiz-adv-x="566" 
d="M74 0v494h111v-195h73l161 195h123v-5l-194 -233l205 -251v-5h-132l-165 204h-71v-204h-111z" />
    <glyph glyph-name="afii10077" unicode="&#x43b;" horiz-adv-x="589" 
d="M47 0h-26v100h11q26 0 38.5 10.5t14.5 35.5l21 348h409v-494h-111v401h-200l-18 -264q-5 -71 -38.5 -104t-100.5 -33z" />
    <glyph glyph-name="afii10078" unicode="&#x43c;" horiz-adv-x="713" 
d="M404 41h-99l-121 300l-38 -341h-98l53 494h125l131 -333l131 333h123l53 -494h-102l-38 346z" />
    <glyph glyph-name="afii10079" unicode="&#x43d;" horiz-adv-x="617" 
d="M74 0v494h111v-191h247v191h111v-494h-111v210h-247v-210h-111z" />
    <glyph glyph-name="afii10080" unicode="&#x43e;" horiz-adv-x="603" 
d="M301 504q115 0 189 -72t74 -185t-74 -185t-189 -72t-188.5 72t-73.5 185t73.5 185t188.5 72zM301 89q67 0 109 43.5t42 114.5t-42 115t-109 44t-108.5 -44t-41.5 -115t41.5 -114.5t108.5 -43.5z" />
    <glyph glyph-name="afii10081" unicode="&#x43f;" horiz-adv-x="617" 
d="M74 0v494h469v-494h-111v401h-247v-401h-111z" />
    <glyph glyph-name="afii10082" unicode="&#x440;" horiz-adv-x="627" 
d="M74 -190v684h80l20 -64q31 36 74 55t93 19q105 0 176 -73t71 -184t-71 -184t-176 -73q-46 0 -86.5 16.5t-69.5 48.5v-245h-111zM326 406q-65 0 -107 -44.5t-42 -114.5t42 -114t107 -44q66 0 107.5 43.5t41.5 114.5t-41.5 115t-107.5 44z" />
    <glyph glyph-name="afii10083" unicode="&#x441;" 
d="M430 202h114q-14 -97 -82.5 -154.5t-168.5 -57.5q-111 0 -182.5 72t-71.5 185t71.5 185t182.5 72q100 0 168.5 -57.5t82.5 -154.5h-114q-12 53 -48.5 83.5t-88.5 30.5q-63 0 -102 -44t-39 -115t39 -114.5t102 -43.5q52 0 88.5 30t48.5 83z" />
    <glyph glyph-name="afii10084" unicode="&#x442;" horiz-adv-x="502" 
d="M195 401h-179v93h470v-93h-179v-401h-112v401z" />
    <glyph glyph-name="afii10085" unicode="&#x443;" horiz-adv-x="554" 
d="M235 -19l8 22h-36l-196 491h116l154 -394l150 394h112l-212 -544q-28 -76 -71.5 -108t-125.5 -32h-69v99h63q48 0 69.5 15.5t37.5 56.5z" />
    <glyph glyph-name="afii10086" unicode="&#x444;" horiz-adv-x="720" 
d="M305 504v186h111v-186q116 -1 191 -73t75 -184q0 -113 -75 -185t-191 -72v-180h-111v180q-116 1 -191 73t-75 184q0 113 75 185t191 72zM151 247q0 -71 43.5 -114.5t113.5 -43.5h3v317h-3q-70 0 -113.5 -44t-43.5 -115zM410 89h3q70 0 113 43.5t43 114.5t-43 115t-113 44
h-3v-317z" />
    <glyph glyph-name="afii10087" unicode="&#x445;" horiz-adv-x="560" 
d="M137 0h-125l202 256l-187 238h133l126 -161l125 161h126l-189 -240l199 -254h-133l-139 177z" />
    <glyph glyph-name="afii10088" unicode="&#x446;" horiz-adv-x="623" 
d="M599 -150h-108v150h-417v494h111v-401h237v401h111v-401h66v-243z" />
    <glyph glyph-name="afii10089" unicode="&#x447;" horiz-adv-x="573" 
d="M275 229q30 0 58.5 6t53.5 17v242h112v-494h-112v158q-32 -13 -66 -20t-70 -7q-98 0 -153.5 49.5t-55.5 138.5v175h112v-158q0 -56 29 -81.5t92 -25.5z" />
    <glyph glyph-name="afii10090" unicode="&#x448;" horiz-adv-x="884" 
d="M810 494v-494h-736v494h111v-401h201v401h112v-401h201v401h111z" />
    <glyph glyph-name="afii10091" unicode="&#x449;" horiz-adv-x="900" 
d="M876 -150h-108v150h-694v494h111v-401h201v401h112v-401h201v401h111v-401h66v-243z" />
    <glyph glyph-name="afii10092" unicode="&#x44a;" horiz-adv-x="645" 
d="M154 401h-138v93h249v-157h153q90 0 143.5 -45.5t53.5 -123.5q0 -77 -53.5 -122.5t-143.5 -45.5h-264v401zM504 168q0 38 -22 57.5t-64 19.5h-153v-153h153q42 0 64 19.5t22 56.5z" />
    <glyph glyph-name="afii10093" unicode="&#x44b;" horiz-adv-x="776" 
d="M74 0v494h111v-157h153q90 0 143.5 -45.5t53.5 -123.5q0 -77 -53.5 -122.5t-143.5 -45.5h-264zM591 0v494h111v-494h-111zM424 168q0 38 -22 57.5t-64 19.5h-153v-153h153q42 0 64 19.5t22 56.5z" />
    <glyph glyph-name="afii10094" unicode="&#x44c;" horiz-adv-x="565" 
d="M74 0v494h111v-157h153q90 0 143.5 -45.5t53.5 -123.5q0 -77 -53.5 -122.5t-143.5 -45.5h-264zM424 168q0 38 -22 57.5t-64 19.5h-153v-153h153q42 0 64 19.5t22 56.5z" />
    <glyph glyph-name="afii10095" unicode="&#x44d;" 
d="M146 292h-110q14 97 82.5 154.5t168.5 57.5q111 0 182.5 -72t71.5 -185t-71.5 -185t-182.5 -72q-100 0 -168.5 57.5t-82.5 154.5h110q12 -52 50.5 -82.5t92.5 -30.5q55 0 92.5 31.5t47.5 86.5h-207v80h207q-10 55 -47.5 86.5t-92.5 31.5q-54 0 -92.5 -30.5t-50.5 -82.5z
" />
    <glyph glyph-name="afii10096" unicode="&#x44e;" horiz-adv-x="824" 
d="M74 0v494h111v-198h79q16 94 86.5 151t171.5 57q115 0 189 -72t74 -185t-74 -185t-189 -72q-103 0 -174 58.5t-85 154.5h-78v-203h-111zM522 89q67 0 109 43.5t42 114.5t-42 115t-109 44t-108.5 -44t-41.5 -115t41.5 -114.5t108.5 -43.5z" />
    <glyph glyph-name="afii10097" unicode="&#x44f;" horiz-adv-x="574" 
d="M256 160l-99 -160h-119l110 175q-52 19 -80 58t-28 93q0 79 54.5 123.5t151.5 44.5h254v-494h-110v160h-134zM153 326q0 -37 23.5 -56.5t67.5 -19.5h146v152h-146q-44 0 -67.5 -19.5t-23.5 -56.5z" />
    <glyph glyph-name="uni0450" unicode="&#x450;" horiz-adv-x="582" 
d="M427 166h111q-14 -79 -79 -127.5t-159 -48.5q-115 0 -187.5 72t-72.5 186t70.5 185t183.5 71q109 0 178 -69t69 -180q0 -6 -0.5 -16t-1.5 -21h-389q7 -64 47 -99t103 -35q49 0 82.5 22t44.5 60zM291 412q-57 0 -93 -30t-46 -87h280q-6 54 -44.5 85.5t-96.5 31.5zM128 690
h114l100 -150h-96z" />
    <glyph glyph-name="afii10071" unicode="&#x451;" horiz-adv-x="582" 
d="M427 166h111q-14 -79 -79 -127.5t-159 -48.5q-115 0 -187.5 72t-72.5 186t70.5 185t183.5 71q109 0 178 -69t69 -180q0 -6 -0.5 -16t-1.5 -21h-389q7 -64 47 -99t103 -35q49 0 82.5 22t44.5 60zM291 412q-57 0 -93 -30t-46 -87h280q-6 54 -44.5 85.5t-96.5 31.5zM154 577
v107h103v-107h-103zM331 577v107h103v-107h-103z" />
    <glyph glyph-name="afii10099" unicode="&#x452;" horiz-adv-x="606" 
d="M320 331q-57 0 -90.5 -34t-33.5 -91v-206h-111v509h-82v93h82v88h111v-88h163v-93h-163v-136q27 28 65 42.5t82 14.5q94 0 152.5 -57t58.5 -150v-249q0 -85 -41.5 -124.5t-131.5 -39.5h-68v99h50q42 0 61 16t19 51v230q0 58 -33.5 91.5t-89.5 33.5z" />
    <glyph glyph-name="afii10100" unicode="&#x453;" horiz-adv-x="429" 
d="M74 0v494h347l-32 -93h-204v-401h-111zM203 540l100 150h114l-118 -150h-96z" />
    <glyph glyph-name="afii10101" unicode="&#x454;" 
d="M435 202h109q-14 -96 -82.5 -154t-167.5 -58q-111 0 -182.5 72t-71.5 185t71.5 185t182.5 72q99 0 167.5 -58t82.5 -154h-109q-13 52 -51.5 83t-91.5 31q-55 0 -92.5 -31.5t-47.5 -87.5h206v-79h-207q10 -55 48 -87t93 -32q53 0 92 30.5t51 82.5z" />
    <glyph glyph-name="afii10102" unicode="&#x455;" horiz-adv-x="509" 
d="M265 78q46 0 69.5 14.5t23.5 42.5q0 26 -21 39.5t-69 20.5l-55 7q-81 12 -122.5 49.5t-41.5 99.5q0 70 53.5 111.5t143.5 41.5q93 0 152 -45t60 -116h-105q-1 34 -29.5 54t-77.5 20q-42 0 -65 -15t-23 -43q0 -25 21 -39t67 -21l55 -8q85 -12 126 -47.5t41 -96.5
q0 -72 -55 -114.5t-148 -42.5q-98 0 -160 49t-64 126h108q2 -39 33 -63t83 -24z" />
    <glyph glyph-name="afii10103" unicode="&#x456;" horiz-adv-x="259" 
d="M72 570v114h115v-114h-115zM74 0v494h111v-494h-111z" />
    <glyph glyph-name="afii10104" unicode="&#x457;" horiz-adv-x="259" 
d="M18 577v107h93v-107h-93zM149 577v107h93v-107h-93zM74 0v494h111v-494h-111z" />
    <glyph glyph-name="afii10105" unicode="&#x458;" horiz-adv-x="259" 
d="M72 570v114h115v-114h-115zM74 -24v518h111v-520q0 -85 -42 -124.5t-132 -39.5h-67v99h49q42 0 61.5 16t19.5 51z" />
    <glyph glyph-name="afii10106" unicode="&#x459;" horiz-adv-x="895" 
d="M47 0h-26v100h11q26 0 38.5 10.5t14.5 35.5l21 348h409v-157h153q90 0 143.5 -45.5t53.5 -123.5q0 -77 -53.5 -122.5t-143.5 -45.5h-264v401h-200l-18 -264q-5 -71 -38.5 -104t-100.5 -33zM754 168q0 38 -22 57.5t-64 19.5h-153v-153h153q42 0 64 19.5t22 56.5z" />
    <glyph glyph-name="afii10107" unicode="&#x45a;" horiz-adv-x="896" 
d="M74 0v494h111v-177h234v177h111v-177h142q90 0 142.5 -43t52.5 -116q0 -72 -53 -115t-142 -43h-253v223h-234v-223h-111zM756 158q0 33 -21.5 50t-62.5 17h-142v-133h142q41 0 62.5 17t21.5 49z" />
    <glyph glyph-name="afii10108" unicode="&#x45b;" horiz-adv-x="606" 
d="M320 331q-57 0 -90.5 -34t-33.5 -91v-206h-111v509h-82v93h82v88h111v-88h163v-93h-163v-136q27 28 65 42.5t82 14.5q94 0 152.5 -57t58.5 -150v-223h-111v206q0 58 -33.5 91.5t-89.5 33.5z" />
    <glyph glyph-name="afii10109" unicode="&#x45c;" horiz-adv-x="566" 
d="M74 0v494h111v-195h73l161 195h123v-5l-194 -233l205 -251v-5h-132l-165 204h-71v-204h-111zM251 540l100 150h114l-118 -150h-96z" />
    <glyph glyph-name="uni045D" unicode="&#x45d;" horiz-adv-x="617" 
d="M74 0v494h111v-360l229 360h129v-494h-111v360l-228 -360h-130zM157 690h114l100 -150h-96z" />
    <glyph glyph-name="afii10110" unicode="&#x45e;" horiz-adv-x="554" 
d="M235 -19l8 22h-36l-196 491h116l154 -394l150 394h112l-212 -544q-28 -76 -71.5 -108t-125.5 -32h-69v99h63q48 0 69.5 15.5t37.5 56.5zM273 540q-72 0 -112.5 38.5t-40.5 108.5h89q0 -39 15.5 -58t48.5 -19t48.5 19t15.5 58h89q0 -70 -40.5 -108.5t-112.5 -38.5z" />
    <glyph glyph-name="afii10193" unicode="&#x45f;" horiz-adv-x="607" 
d="M358 -150h-108v150h-176v494h111v-401h237v401h111v-494h-175v-150z" />
    <glyph glyph-name="afii10146" unicode="&#x462;" horiz-adv-x="639" 
d="M605 188q0 -91 -60 -139.5t-172 -48.5h-270v470h-77v95h77v75h113v-75h185v-95h-185v-94h157q112 0 172 -48.5t60 -139.5zM490 188q0 45 -30 68.5t-88 23.5h-156v-184h156q58 0 88 23.5t30 68.5z" />
    <glyph glyph-name="afii10194" unicode="&#x463;" horiz-adv-x="582" 
d="M553 168q0 -77 -53.5 -122.5t-143.5 -45.5h-265v449h-81v93h81v148h112v-148h163v-93h-163v-112h153q90 0 143.5 -46t53.5 -123zM442 168q0 37 -22.5 57t-64.5 20h-152v-153h152q42 0 64.5 19.5t22.5 56.5z" />
    <glyph glyph-name="afii10147" unicode="&#x472;" horiz-adv-x="748" 
d="M374 650q143 0 236.5 -93.5t93.5 -236.5q0 -144 -93.5 -237t-236.5 -93t-236.5 93t-93.5 237q0 143 93.5 236.5t236.5 93.5zM374 546q-82 0 -139 -45t-73 -124h425q-16 79 -73 124t-140 45zM374 95q87 0 145 48.5t70 132.5h-429q12 -84 70 -132.5t144 -48.5z" />
    <glyph glyph-name="afii10195" unicode="&#x473;" horiz-adv-x="603" 
d="M301 504q115 0 189 -72t74 -185t-74 -185t-189 -72q-114 0 -188 72t-74 185t74 185t188 72zM301 408q-61 0 -101.5 -32.5t-51.5 -88.5h307q-11 56 -52 88.5t-102 32.5zM301 87q61 0 102 32.5t52 88.5h-307q11 -57 51.5 -89t101.5 -32z" />
    <glyph glyph-name="afii10148" unicode="&#x474;" horiz-adv-x="729" 
d="M412 0h-121l-276 640h126l212 -504l146 373q30 77 68.5 104t116.5 27h24v-103h-23q-34 0 -51 -14.5t-34 -57.5z" />
    <glyph glyph-name="afii10196" unicode="&#x475;" horiz-adv-x="577" 
d="M336 0h-120l-206 494h116l151 -370l100 255q24 64 57.5 89.5t95.5 25.5h30v-93h-19q-25 0 -40 -12.5t-27 -43.5z" />
    <glyph glyph-name="afii10050" unicode="&#x490;" horiz-adv-x="528" 
d="M84 0v640h309v140h114v-243h-309v-537h-114z" />
    <glyph glyph-name="afii10098" unicode="&#x491;" horiz-adv-x="437" 
d="M74 0v494h236v150h111v-243h-236v-401h-111z" />
    <glyph glyph-name="Wgrave" unicode="&#x1e80;" horiz-adv-x="959" 
d="M21 640h121l140 -487l151 364l-48 123h123l177 -475l137 475h117l-193 -640h-113l-147 379l-159 -379h-113zM314 840h114l100 -150h-96z" />
    <glyph glyph-name="wgrave" unicode="&#x1e81;" horiz-adv-x="822" 
d="M647 0h-115l-115 294l-122 -294h-107l-174 494h111l126 -364l118 285l-31 79h112l140 -366l115 366h101zM245 690h114l100 -150h-96z" />
    <glyph glyph-name="Wacute" unicode="&#x1e82;" horiz-adv-x="959" 
d="M21 640h121l140 -487l151 364l-48 123h123l177 -475l137 475h117l-193 -640h-113l-147 379l-159 -379h-113zM432 690l100 150h114l-118 -150h-96z" />
    <glyph glyph-name="wacute" unicode="&#x1e83;" horiz-adv-x="822" 
d="M647 0h-115l-115 294l-122 -294h-107l-174 494h111l126 -364l118 285l-31 79h112l140 -366l115 366h101zM363 540l100 150h114l-118 -150h-96z" />
    <glyph glyph-name="Wdieresis" unicode="&#x1e84;" horiz-adv-x="959" 
d="M21 640h121l140 -487l151 364l-48 123h123l177 -475l137 475h117l-193 -640h-113l-147 379l-159 -379h-113zM340 727v107h103v-107h-103zM517 727v107h103v-107h-103z" />
    <glyph glyph-name="wdieresis" unicode="&#x1e85;" horiz-adv-x="822" 
d="M647 0h-115l-115 294l-122 -294h-107l-174 494h111l126 -364l118 285l-31 79h112l140 -366l115 366h101zM271 577v107h103v-107h-103zM448 577v107h103v-107h-103z" />
    <glyph glyph-name="uni1E9E" unicode="&#x1e9e;" horiz-adv-x="690" 
d="M361 281v77l126 170q-31 8 -61 12.5t-57 4.5q-91 0 -137.5 -44t-46.5 -131v-370h-114v374q0 132 76.5 204t215.5 72q64 0 124 -14t119 -42v-83l-108 -136q73 -17 112.5 -64.5t39.5 -119.5q0 -89 -59 -140t-163 -51h-151v101h144q55 0 83.5 22.5t28.5 67.5q0 44 -28 67
t-81 23h-63z" />
    <glyph glyph-name="uni1EA0" unicode="&#x1ea0;" horiz-adv-x="711" 
d="M296 640h119l277 -640h-124l-65 155h-300l-65 -155h-119zM353 509l-107 -252h214zM299 -190v114h115v-114h-115z" />
    <glyph glyph-name="uni1EA1" unicode="&#x1ea1;" horiz-adv-x="627" 
d="M553 494v-494h-80l-20 64q-31 -36 -74.5 -55t-93.5 -19q-104 0 -175 73t-71 184t71 184t175 73q50 0 93.5 -19t74.5 -55l20 64h80zM301 89q65 0 107 44t42 114t-42 114.5t-107 44.5q-66 0 -107.5 -44t-41.5 -115t41.5 -114.5t107.5 -43.5zM242 -190v114h115v-114h-115z
" />
    <glyph glyph-name="uni1EA2" unicode="&#x1ea2;" horiz-adv-x="711" 
d="M296 640h119l277 -640h-124l-65 155h-300l-65 -155h-119zM353 509l-107 -252h214zM481 779q0 -34 -25 -56.5t-75 -33.5l-52 -10v59l36 8q18 4 26.5 12t8.5 20q0 15 -11.5 23t-32.5 8q-22 0 -34.5 -9.5t-13.5 -27.5h-80q0 47 35.5 76t92.5 29q56 0 90.5 -27t34.5 -71z" />
    <glyph glyph-name="uni1EA3" unicode="&#x1ea3;" horiz-adv-x="627" 
d="M553 494v-494h-80l-20 64q-31 -36 -74.5 -55t-93.5 -19q-104 0 -175 73t-71 184t71 184t175 73q50 0 93.5 -19t74.5 -55l20 64h80zM301 89q65 0 107 44t42 114t-42 114.5t-107 44.5q-66 0 -107.5 -44t-41.5 -115t41.5 -114.5t107.5 -43.5zM424 630q0 -34 -25 -56.5
t-75 -33.5l-52 -10v59l36 8q18 4 26.5 12t8.5 20q0 15 -11.5 23t-32.5 8q-22 0 -34.5 -9.5t-13.5 -27.5h-80q0 47 35.5 76t92.5 29q56 0 90.5 -27t34.5 -71z" />
    <glyph glyph-name="uni1EA4" unicode="&#x1ea4;" horiz-adv-x="711" 
d="M296 640h119l277 -640h-124l-65 155h-300l-65 -155h-119zM353 509l-107 -252h214zM463 790l65 150h106l-83 -150h-88zM514 690h-93l-65 86l-66 -86h-93l106 150h105z" />
    <glyph glyph-name="uni1EA5" unicode="&#x1ea5;" horiz-adv-x="627" 
d="M553 494v-494h-80l-20 64q-31 -36 -74.5 -55t-93.5 -19q-104 0 -175 73t-71 184t71 184t175 73q50 0 93.5 -19t74.5 -55l20 64h80zM301 89q65 0 107 44t42 114t-42 114.5t-107 44.5q-66 0 -107.5 -44t-41.5 -115t41.5 -114.5t107.5 -43.5zM406 641l65 150h106l-83 -150
h-88zM457 541h-93l-65 86l-66 -86h-93l106 150h105z" />
    <glyph glyph-name="uni1EA6" unicode="&#x1ea6;" horiz-adv-x="711" 
d="M296 640h119l277 -640h-124l-65 155h-300l-65 -155h-119zM353 509l-107 -252h214zM391 940h110l93 -150h-92zM514 690h-93l-65 86l-66 -86h-93l106 150h105z" />
    <glyph glyph-name="uni1EA7" unicode="&#x1ea7;" horiz-adv-x="627" 
d="M553 494v-494h-80l-20 64q-31 -36 -74.5 -55t-93.5 -19q-104 0 -175 73t-71 184t71 184t175 73q50 0 93.5 -19t74.5 -55l20 64h80zM301 89q65 0 107 44t42 114t-42 114.5t-107 44.5q-66 0 -107.5 -44t-41.5 -115t41.5 -114.5t107.5 -43.5zM334 791h110l93 -150h-92z
M457 541h-93l-65 86l-66 -86h-93l106 150h105z" />
    <glyph glyph-name="uni1EA8" unicode="&#x1ea8;" horiz-adv-x="711" 
d="M296 640h119l277 -640h-124l-65 155h-300l-65 -155h-119zM353 509l-107 -252h214zM606 888q0 -30 -23 -53t-68 -35l-41 -11v60l30 9q13 4 20 11t7 17q0 11 -11 18t-29 7q-22 0 -33.5 -7.5t-12.5 -22.5h-75q1 42 33.5 67t88.5 25q53 0 83.5 -23t30.5 -62zM514 690h-93
l-65 86l-66 -86h-93l106 150h105z" />
    <glyph glyph-name="uni1EA9" unicode="&#x1ea9;" horiz-adv-x="627" 
d="M553 494v-494h-80l-20 64q-31 -36 -74.5 -55t-93.5 -19q-104 0 -175 73t-71 184t71 184t175 73q50 0 93.5 -19t74.5 -55l20 64h80zM301 89q65 0 107 44t42 114t-42 114.5t-107 44.5q-66 0 -107.5 -44t-41.5 -115t41.5 -114.5t107.5 -43.5zM549 739q0 -30 -23 -53t-68 -35
l-41 -11v60l30 9q13 4 20 11t7 17q0 11 -11 18t-29 7q-22 0 -33.5 -7.5t-12.5 -22.5h-75q1 42 33.5 67t88.5 25q53 0 83.5 -23t30.5 -62zM457 541h-93l-65 86l-66 -86h-93l106 150h105z" />
    <glyph glyph-name="uni1EAA" unicode="&#x1eaa;" horiz-adv-x="711" 
d="M296 640h119l277 -640h-124l-65 155h-300l-65 -155h-119zM353 509l-107 -252h214zM298 972q19 0 36.5 -9t41.5 -36q14 -15 20 -19t11 -4q13 0 18.5 13.5t5.5 45.5h69q0 -64 -21.5 -96t-65.5 -32q-19 0 -36.5 9t-41.5 36q-13 15 -19 19t-11 4q-14 0 -19.5 -13.5
t-5.5 -45.5h-69q0 64 21.5 96t65.5 32zM514 690h-94l-64 70l-65 -70h-94l106 127h105z" />
    <glyph glyph-name="uni1EAB" unicode="&#x1eab;" horiz-adv-x="627" 
d="M553 494v-494h-80l-20 64q-31 -36 -74.5 -55t-93.5 -19q-104 0 -175 73t-71 184t71 184t175 73q50 0 93.5 -19t74.5 -55l20 64h80zM301 89q65 0 107 44t42 114t-42 114.5t-107 44.5q-66 0 -107.5 -44t-41.5 -115t41.5 -114.5t107.5 -43.5zM241 823q19 0 36.5 -9t41.5 -36
q14 -15 20 -19t11 -4q13 0 18.5 13.5t5.5 45.5h69q0 -64 -21.5 -96t-65.5 -32q-19 0 -36.5 9t-41.5 36q-13 15 -19 19t-11 4q-14 0 -19.5 -13.5t-5.5 -45.5h-69q0 64 21.5 96t65.5 32zM457 541h-94l-64 70l-65 -70h-94l106 127h105z" />
    <glyph glyph-name="uni1EAC" unicode="&#x1eac;" horiz-adv-x="711" 
d="M296 640h119l277 -640h-124l-65 155h-300l-65 -155h-119zM353 509l-107 -252h214zM514 690h-93l-65 86l-66 -86h-93l106 150h105zM299 -190v114h115v-114h-115z" />
    <glyph glyph-name="uni1EAD" unicode="&#x1ead;" horiz-adv-x="627" 
d="M553 494v-494h-80l-20 64q-31 -36 -74.5 -55t-93.5 -19q-104 0 -175 73t-71 184t71 184t175 73q50 0 93.5 -19t74.5 -55l20 64h80zM301 89q65 0 107 44t42 114t-42 114.5t-107 44.5q-66 0 -107.5 -44t-41.5 -115t41.5 -114.5t107.5 -43.5zM457 541h-93l-65 86l-66 -86
h-93l106 150h105zM242 -190v114h115v-114h-115z" />
    <glyph glyph-name="uni1EAE" unicode="&#x1eae;" horiz-adv-x="711" 
d="M296 640h119l277 -640h-124l-65 155h-300l-65 -155h-119zM353 509l-107 -252h214zM306 851l100 109h115l-118 -109h-97zM356 690q-67 0 -105.5 38.5t-38.5 108.5h79q0 -38 16 -56.5t49 -18.5t49 18.5t16 56.5h79q0 -70 -38.5 -108.5t-105.5 -38.5z" />
    <glyph glyph-name="uni1EAF" unicode="&#x1eaf;" horiz-adv-x="627" 
d="M553 494v-494h-80l-20 64q-31 -36 -74.5 -55t-93.5 -19q-104 0 -175 73t-71 184t71 184t175 73q50 0 93.5 -19t74.5 -55l20 64h80zM301 89q65 0 107 44t42 114t-42 114.5t-107 44.5q-66 0 -107.5 -44t-41.5 -115t41.5 -114.5t107.5 -43.5zM249 702l100 109h115l-118 -109
h-97zM299 541q-67 0 -105.5 38.5t-38.5 108.5h79q0 -38 16 -56.5t49 -18.5t49 18.5t16 56.5h79q0 -70 -38.5 -108.5t-105.5 -38.5z" />
    <glyph glyph-name="uni1EB0" unicode="&#x1eb0;" horiz-adv-x="711" 
d="M296 640h119l277 -640h-124l-65 155h-300l-65 -155h-119zM353 509l-107 -252h214zM192 960h118l100 -109h-100zM356 690q-67 0 -105.5 38.5t-38.5 108.5h79q0 -38 16 -56.5t49 -18.5t49 18.5t16 56.5h79q0 -70 -38.5 -108.5t-105.5 -38.5z" />
    <glyph glyph-name="uni1EB1" unicode="&#x1eb1;" horiz-adv-x="627" 
d="M553 494v-494h-80l-20 64q-31 -36 -74.5 -55t-93.5 -19q-104 0 -175 73t-71 184t71 184t175 73q50 0 93.5 -19t74.5 -55l20 64h80zM301 89q65 0 107 44t42 114t-42 114.5t-107 44.5q-66 0 -107.5 -44t-41.5 -115t41.5 -114.5t107.5 -43.5zM135 811h118l100 -109h-100z
M299 541q-67 0 -105.5 38.5t-38.5 108.5h79q0 -38 16 -56.5t49 -18.5t49 18.5t16 56.5h79q0 -70 -38.5 -108.5t-105.5 -38.5z" />
    <glyph glyph-name="uni1EB2" unicode="&#x1eb2;" horiz-adv-x="711" 
d="M296 640h119l277 -640h-124l-65 155h-300l-65 -155h-119zM353 509l-107 -252h214zM470 898q0 -30 -22 -50t-69 -33l-41 -11v51l30 9q14 4 20.5 10.5t6.5 16.5q0 12 -10.5 18.5t-29.5 6.5q-21 0 -33 -7.5t-13 -22.5h-75q1 42 33.5 66.5t88.5 24.5q53 0 83.5 -21.5
t30.5 -57.5zM356 691q-67 0 -105.5 32.5t-38.5 89.5h74q0 -29 18 -44t52 -15t52 15t18 44h74q0 -57 -38.5 -89.5t-105.5 -32.5z" />
    <glyph glyph-name="uni1EB3" unicode="&#x1eb3;" horiz-adv-x="627" 
d="M553 494v-494h-80l-20 64q-31 -36 -74.5 -55t-93.5 -19q-104 0 -175 73t-71 184t71 184t175 73q50 0 93.5 -19t74.5 -55l20 64h80zM301 89q65 0 107 44t42 114t-42 114.5t-107 44.5q-66 0 -107.5 -44t-41.5 -115t41.5 -114.5t107.5 -43.5zM413 748q0 -30 -22 -50t-69 -33
l-41 -11v51l30 9q14 4 20.5 10.5t6.5 16.5q0 12 -10.5 18.5t-29.5 6.5q-21 0 -33 -7.5t-13 -22.5h-75q1 42 33.5 66.5t88.5 24.5q53 0 83.5 -21.5t30.5 -57.5zM299 541q-67 0 -105.5 32.5t-38.5 89.5h74q0 -29 18 -44t52 -15t52 15t18 44h74q0 -57 -38.5 -89.5t-105.5 -32.5
z" />
    <glyph glyph-name="uni1EB4" unicode="&#x1eb4;" horiz-adv-x="711" 
d="M296 640h119l277 -640h-124l-65 155h-300l-65 -155h-119zM353 509l-107 -252h214zM298 974q20 0 37.5 -9.5t41.5 -36.5q14 -15 20 -19t11 -4q13 0 19 14.5t6 45.5h67q0 -64 -21.5 -96t-65.5 -32q-19 0 -36.5 9t-41.5 35q-13 15 -19.5 19.5t-12.5 4.5q-14 0 -19.5 -13.5
t-5.5 -45.5h-67q0 64 21.5 96t65.5 32zM356 690q-67 0 -105.5 33.5t-38.5 93.5h76q0 -29 17 -43.5t51 -14.5t51 14.5t17 43.5h76q0 -60 -38.5 -93.5t-105.5 -33.5z" />
    <glyph glyph-name="uni1EB5" unicode="&#x1eb5;" horiz-adv-x="627" 
d="M553 494v-494h-80l-20 64q-31 -36 -74.5 -55t-93.5 -19q-104 0 -175 73t-71 184t71 184t175 73q50 0 93.5 -19t74.5 -55l20 64h80zM301 89q65 0 107 44t42 114t-42 114.5t-107 44.5q-66 0 -107.5 -44t-41.5 -115t41.5 -114.5t107.5 -43.5zM241 825q20 0 37.5 -9.5
t41.5 -36.5q14 -15 20 -19t11 -4q13 0 19 14.5t6 45.5h67q0 -64 -21.5 -96t-65.5 -32q-19 0 -36.5 9t-41.5 35q-13 15 -19.5 19.5t-12.5 4.5q-14 0 -19.5 -13.5t-5.5 -45.5h-67q0 64 21.5 96t65.5 32zM299 541q-67 0 -105.5 33.5t-38.5 93.5h76q0 -29 17 -43.5t51 -14.5
t51 14.5t17 43.5h76q0 -60 -38.5 -93.5t-105.5 -33.5z" />
    <glyph glyph-name="uni1EB6" unicode="&#x1eb6;" horiz-adv-x="711" 
d="M296 640h119l277 -640h-124l-65 155h-300l-65 -155h-119zM353 509l-107 -252h214zM356 690q-67 0 -105.5 38.5t-38.5 108.5h79q0 -38 16 -56.5t49 -18.5t49 18.5t16 56.5h79q0 -70 -38.5 -108.5t-105.5 -38.5zM299 -190v114h115v-114h-115z" />
    <glyph glyph-name="uni1EB7" unicode="&#x1eb7;" horiz-adv-x="627" 
d="M553 494v-494h-80l-20 64q-31 -36 -74.5 -55t-93.5 -19q-104 0 -175 73t-71 184t71 184t175 73q50 0 93.5 -19t74.5 -55l20 64h80zM301 89q65 0 107 44t42 114t-42 114.5t-107 44.5q-66 0 -107.5 -44t-41.5 -115t41.5 -114.5t107.5 -43.5zM299 541q-67 0 -105.5 38.5
t-38.5 108.5h79q0 -38 16 -56.5t49 -18.5t49 18.5t16 56.5h79q0 -70 -38.5 -108.5t-105.5 -38.5zM242 -190v114h115v-114h-115z" />
    <glyph glyph-name="uni1EB8" unicode="&#x1eb8;" horiz-adv-x="578" 
d="M84 0v640h449v-103h-335v-163h305v-100h-305v-171h335v-103h-449zM255 -190v114h115v-114h-115z" />
    <glyph glyph-name="uni1EB9" unicode="&#x1eb9;" horiz-adv-x="581" 
d="M427 166h111q-14 -79 -79 -127.5t-159 -48.5q-115 0 -187.5 72t-72.5 186t70.5 185t183.5 71q109 0 178 -69t69 -180q0 -6 -0.5 -16t-1.5 -21h-389q7 -64 47 -99t103 -35q49 0 82.5 22t44.5 60zM291 412q-57 0 -93 -30t-46 -87h280q-6 54 -44.5 85.5t-96.5 31.5z
M237 -190v114h115v-114h-115z" />
    <glyph glyph-name="uni1EBA" unicode="&#x1eba;" horiz-adv-x="578" 
d="M84 0v640h449v-103h-335v-163h305v-100h-305v-171h335v-103h-449zM437 779q0 -34 -25 -56.5t-75 -33.5l-52 -10v59l36 8q18 4 26.5 12t8.5 20q0 15 -11.5 23t-32.5 8q-22 0 -34.5 -9.5t-13.5 -27.5h-80q0 47 35.5 76t92.5 29q56 0 90.5 -27t34.5 -71z" />
    <glyph glyph-name="uni1EBB" unicode="&#x1ebb;" horiz-adv-x="581" 
d="M427 166h111q-14 -79 -79 -127.5t-159 -48.5q-115 0 -187.5 72t-72.5 186t70.5 185t183.5 71q109 0 178 -69t69 -180q0 -6 -0.5 -16t-1.5 -21h-389q7 -64 47 -99t103 -35q49 0 82.5 22t44.5 60zM291 412q-57 0 -93 -30t-46 -87h280q-6 54 -44.5 85.5t-96.5 31.5zM419 629
q0 -34 -25 -56.5t-75 -33.5l-52 -10v59l36 8q18 4 26.5 12t8.5 20q0 15 -11.5 23t-32.5 8q-22 0 -34.5 -9.5t-13.5 -27.5h-80q0 47 35.5 76t92.5 29q56 0 90.5 -27t34.5 -71z" />
    <glyph glyph-name="uni1EBC" unicode="&#x1ebc;" horiz-adv-x="578" 
d="M84 0v640h449v-103h-335v-163h305v-100h-305v-171h335v-103h-449zM247 834q22 0 41.5 -9.5t47.5 -36.5q14 -14 20.5 -18t12.5 -4q12 0 17.5 14t5.5 45h71q0 -65 -21.5 -97.5t-65.5 -32.5q-22 0 -41 9t-46 36q-15 15 -22 19t-13 4q-12 0 -17.5 -14t-5.5 -45h-71
q0 65 21.5 97.5t65.5 32.5z" />
    <glyph glyph-name="uni1EBD" unicode="&#x1ebd;" horiz-adv-x="581" 
d="M427 166h111q-14 -79 -79 -127.5t-159 -48.5q-115 0 -187.5 72t-72.5 186t70.5 185t183.5 71q109 0 178 -69t69 -180q0 -6 -0.5 -16t-1.5 -21h-389q7 -64 47 -99t103 -35q49 0 82.5 22t44.5 60zM291 412q-57 0 -93 -30t-46 -87h280q-6 54 -44.5 85.5t-96.5 31.5zM229 684
q22 0 41.5 -9.5t47.5 -36.5q14 -14 20.5 -18t12.5 -4q12 0 17.5 14t5.5 45h71q0 -65 -21.5 -97.5t-65.5 -32.5q-22 0 -41 9t-46 36q-15 15 -22 19t-13 4q-12 0 -17.5 -14t-5.5 -45h-71q0 65 21.5 97.5t65.5 32.5z" />
    <glyph glyph-name="uni1EBE" unicode="&#x1ebe;" horiz-adv-x="578" 
d="M84 0v640h449v-103h-335v-163h305v-100h-305v-171h335v-103h-449zM419 790l65 150h106l-83 -150h-88zM470 690h-93l-65 86l-66 -86h-93l106 150h105z" />
    <glyph glyph-name="uni1EBF" unicode="&#x1ebf;" horiz-adv-x="581" 
d="M427 166h111q-14 -79 -79 -127.5t-159 -48.5q-115 0 -187.5 72t-72.5 186t70.5 185t183.5 71q109 0 178 -69t69 -180q0 -6 -0.5 -16t-1.5 -21h-389q7 -64 47 -99t103 -35q49 0 82.5 22t44.5 60zM291 412q-57 0 -93 -30t-46 -87h280q-6 54 -44.5 85.5t-96.5 31.5zM401 640
l65 150h106l-83 -150h-88zM452 540h-93l-65 86l-66 -86h-93l106 150h105z" />
    <glyph glyph-name="uni1EC0" unicode="&#x1ec0;" horiz-adv-x="578" 
d="M84 0v640h449v-103h-335v-163h305v-100h-305v-171h335v-103h-449zM347 940h110l93 -150h-92zM470 690h-93l-65 86l-66 -86h-93l106 150h105z" />
    <glyph glyph-name="uni1EC1" unicode="&#x1ec1;" horiz-adv-x="581" 
d="M427 166h111q-14 -79 -79 -127.5t-159 -48.5q-115 0 -187.5 72t-72.5 186t70.5 185t183.5 71q109 0 178 -69t69 -180q0 -6 -0.5 -16t-1.5 -21h-389q7 -64 47 -99t103 -35q49 0 82.5 22t44.5 60zM291 412q-57 0 -93 -30t-46 -87h280q-6 54 -44.5 85.5t-96.5 31.5zM329 790
h110l93 -150h-92zM452 540h-93l-65 86l-66 -86h-93l106 150h105z" />
    <glyph glyph-name="uni1EC2" unicode="&#x1ec2;" horiz-adv-x="578" 
d="M84 0v640h449v-103h-335v-163h305v-100h-305v-171h335v-103h-449zM562 888q0 -30 -23 -53t-68 -35l-41 -11v60l30 9q13 4 20 11t7 17q0 11 -11 18t-29 7q-22 0 -33.5 -7.5t-12.5 -22.5h-75q1 42 33.5 67t88.5 25q53 0 83.5 -23t30.5 -62zM470 690h-93l-65 86l-66 -86h-93
l106 150h105z" />
    <glyph glyph-name="uni1EC3" unicode="&#x1ec3;" horiz-adv-x="581" 
d="M427 166h111q-14 -79 -79 -127.5t-159 -48.5q-115 0 -187.5 72t-72.5 186t70.5 185t183.5 71q109 0 178 -69t69 -180q0 -6 -0.5 -16t-1.5 -21h-389q7 -64 47 -99t103 -35q49 0 82.5 22t44.5 60zM291 412q-57 0 -93 -30t-46 -87h280q-6 54 -44.5 85.5t-96.5 31.5zM544 738
q0 -30 -23 -53t-68 -35l-41 -11v60l30 9q13 4 20 11t7 17q0 11 -11 18t-29 7q-22 0 -33.5 -7.5t-12.5 -22.5h-75q1 42 33.5 67t88.5 25q53 0 83.5 -23t30.5 -62zM452 540h-93l-65 86l-66 -86h-93l106 150h105z" />
    <glyph glyph-name="uni1EC4" unicode="&#x1ec4;" horiz-adv-x="578" 
d="M84 0v640h449v-103h-335v-163h305v-100h-305v-171h335v-103h-449zM254 972q19 0 36.5 -9t41.5 -36q14 -15 20 -19t11 -4q13 0 18.5 13.5t5.5 45.5h69q0 -64 -21.5 -96t-65.5 -32q-19 0 -36.5 9t-41.5 36q-13 15 -19 19t-11 4q-14 0 -19.5 -13.5t-5.5 -45.5h-69
q0 64 21.5 96t65.5 32zM470 690h-94l-64 70l-65 -70h-94l106 127h105z" />
    <glyph glyph-name="uni1EC5" unicode="&#x1ec5;" horiz-adv-x="581" 
d="M427 166h111q-14 -79 -79 -127.5t-159 -48.5q-115 0 -187.5 72t-72.5 186t70.5 185t183.5 71q109 0 178 -69t69 -180q0 -6 -0.5 -16t-1.5 -21h-389q7 -64 47 -99t103 -35q49 0 82.5 22t44.5 60zM291 412q-57 0 -93 -30t-46 -87h280q-6 54 -44.5 85.5t-96.5 31.5zM236 822
q19 0 36.5 -9t41.5 -36q14 -15 20 -19t11 -4q13 0 18.5 13.5t5.5 45.5h69q0 -64 -21.5 -96t-65.5 -32q-19 0 -36.5 9t-41.5 36q-13 15 -19 19t-11 4q-14 0 -19.5 -13.5t-5.5 -45.5h-69q0 64 21.5 96t65.5 32zM452 540h-94l-64 70l-65 -70h-94l106 127h105z" />
    <glyph glyph-name="uni1EC6" unicode="&#x1ec6;" horiz-adv-x="578" 
d="M84 0v640h449v-103h-335v-163h305v-100h-305v-171h335v-103h-449zM470 690h-93l-65 86l-66 -86h-93l106 150h105zM255 -190v114h115v-114h-115z" />
    <glyph glyph-name="uni1EC7" unicode="&#x1ec7;" horiz-adv-x="581" 
d="M427 166h111q-14 -79 -79 -127.5t-159 -48.5q-115 0 -187.5 72t-72.5 186t70.5 185t183.5 71q109 0 178 -69t69 -180q0 -6 -0.5 -16t-1.5 -21h-389q7 -64 47 -99t103 -35q49 0 82.5 22t44.5 60zM291 412q-57 0 -93 -30t-46 -87h280q-6 54 -44.5 85.5t-96.5 31.5zM452 540
h-93l-65 86l-66 -86h-93l106 150h105zM237 -190v114h115v-114h-115z" />
    <glyph glyph-name="uni1EC8" unicode="&#x1ec8;" horiz-adv-x="282" 
d="M84 0v640h114v-640h-114zM267 779q0 -34 -25 -56.5t-75 -33.5l-52 -10v59l36 8q18 4 26.5 12t8.5 20q0 15 -11.5 23t-32.5 8q-22 0 -34.5 -9.5t-13.5 -27.5h-80q0 47 35.5 76t92.5 29q56 0 90.5 -27t34.5 -71z" />
    <glyph glyph-name="uni1EC9" unicode="&#x1ec9;" horiz-adv-x="259" 
d="M74 0v494h111v-494h-111zM255 629q0 -34 -25 -56.5t-75 -33.5l-52 -10v59l36 8q18 4 26.5 12t8.5 20q0 15 -11.5 23t-32.5 8q-22 0 -34.5 -9.5t-13.5 -27.5h-80q0 47 35.5 76t92.5 29q56 0 90.5 -27t34.5 -71z" />
    <glyph glyph-name="uni1ECA" unicode="&#x1eca;" horiz-adv-x="282" 
d="M84 0v640h114v-640h-114zM84 -190v114h115v-114h-115z" />
    <glyph glyph-name="uni1ECB" unicode="&#x1ecb;" horiz-adv-x="259" 
d="M72 570v114h115v-114h-115zM74 0v494h111v-494h-111zM72 -190v114h115v-114h-115z" />
    <glyph glyph-name="uni1ECC" unicode="&#x1ecc;" horiz-adv-x="748" 
d="M374 650q143 0 236.5 -93.5t93.5 -236.5q0 -144 -93.5 -237t-236.5 -93t-236.5 93t-93.5 237q0 143 93.5 236.5t236.5 93.5zM374 95q95 0 154 62t59 163t-59 163.5t-154 62.5t-154 -62.5t-59 -163.5t59 -163t154 -62zM318 -190v114h115v-114h-115z" />
    <glyph glyph-name="uni1ECD" unicode="&#x1ecd;" horiz-adv-x="603" 
d="M301 504q115 0 189 -72t74 -185t-74 -185t-189 -72t-188.5 72t-73.5 185t73.5 185t188.5 72zM301 89q67 0 109 43.5t42 114.5t-42 115t-109 44t-108.5 -44t-41.5 -115t41.5 -114.5t108.5 -43.5zM244 -190v114h115v-114h-115z" />
    <glyph glyph-name="uni1ECE" unicode="&#x1ece;" horiz-adv-x="748" 
d="M374 650q143 0 236.5 -93.5t93.5 -236.5q0 -144 -93.5 -237t-236.5 -93t-236.5 93t-93.5 237q0 143 93.5 236.5t236.5 93.5zM374 95q95 0 154 62t59 163t-59 163.5t-154 62.5t-154 -62.5t-59 -163.5t59 -163t154 -62zM500 779q0 -34 -25 -56.5t-75 -33.5l-52 -10v59l36 8
q18 4 26.5 12t8.5 20q0 15 -11.5 23t-32.5 8q-22 0 -34.5 -9.5t-13.5 -27.5h-80q0 47 35.5 76t92.5 29q56 0 90.5 -27t34.5 -71z" />
    <glyph glyph-name="uni1ECF" unicode="&#x1ecf;" horiz-adv-x="603" 
d="M301 504q115 0 189 -72t74 -185t-74 -185t-189 -72t-188.5 72t-73.5 185t73.5 185t188.5 72zM301 89q67 0 109 43.5t42 114.5t-42 115t-109 44t-108.5 -44t-41.5 -115t41.5 -114.5t108.5 -43.5zM426 629q0 -34 -25 -56.5t-75 -33.5l-52 -10v59l36 8q18 4 26.5 12t8.5 20
q0 15 -11.5 23t-32.5 8q-22 0 -34.5 -9.5t-13.5 -27.5h-80q0 47 35.5 76t92.5 29q56 0 90.5 -27t34.5 -71z" />
    <glyph glyph-name="uni1ED0" unicode="&#x1ed0;" horiz-adv-x="748" 
d="M374 650q143 0 236.5 -93.5t93.5 -236.5q0 -144 -93.5 -237t-236.5 -93t-236.5 93t-93.5 237q0 143 93.5 236.5t236.5 93.5zM374 95q95 0 154 62t59 163t-59 163.5t-154 62.5t-154 -62.5t-59 -163.5t59 -163t154 -62zM482 790l65 150h106l-83 -150h-88zM533 690h-93
l-65 86l-66 -86h-93l106 150h105z" />
    <glyph glyph-name="uni1ED1" unicode="&#x1ed1;" horiz-adv-x="603" 
d="M301 504q115 0 189 -72t74 -185t-74 -185t-189 -72t-188.5 72t-73.5 185t73.5 185t188.5 72zM301 89q67 0 109 43.5t42 114.5t-42 115t-109 44t-108.5 -44t-41.5 -115t41.5 -114.5t108.5 -43.5zM408 640l65 150h106l-83 -150h-88zM459 540h-93l-65 86l-66 -86h-93
l106 150h105z" />
    <glyph glyph-name="uni1ED2" unicode="&#x1ed2;" horiz-adv-x="748" 
d="M374 650q143 0 236.5 -93.5t93.5 -236.5q0 -144 -93.5 -237t-236.5 -93t-236.5 93t-93.5 237q0 143 93.5 236.5t236.5 93.5zM374 95q95 0 154 62t59 163t-59 163.5t-154 62.5t-154 -62.5t-59 -163.5t59 -163t154 -62zM410 940h110l93 -150h-92zM533 690h-93l-65 86
l-66 -86h-93l106 150h105z" />
    <glyph glyph-name="uni1ED3" unicode="&#x1ed3;" horiz-adv-x="603" 
d="M301 504q115 0 189 -72t74 -185t-74 -185t-189 -72t-188.5 72t-73.5 185t73.5 185t188.5 72zM301 89q67 0 109 43.5t42 114.5t-42 115t-109 44t-108.5 -44t-41.5 -115t41.5 -114.5t108.5 -43.5zM336 790h110l93 -150h-92zM459 540h-93l-65 86l-66 -86h-93l106 150h105z
" />
    <glyph glyph-name="uni1ED4" unicode="&#x1ed4;" horiz-adv-x="748" 
d="M374 650q143 0 236.5 -93.5t93.5 -236.5q0 -144 -93.5 -237t-236.5 -93t-236.5 93t-93.5 237q0 143 93.5 236.5t236.5 93.5zM374 95q95 0 154 62t59 163t-59 163.5t-154 62.5t-154 -62.5t-59 -163.5t59 -163t154 -62zM625 888q0 -30 -23 -53t-68 -35l-41 -11v60l30 9
q13 4 20 11t7 17q0 11 -11 18t-29 7q-22 0 -33.5 -7.5t-12.5 -22.5h-75q1 42 33.5 67t88.5 25q53 0 83.5 -23t30.5 -62zM533 690h-93l-65 86l-66 -86h-93l106 150h105z" />
    <glyph glyph-name="uni1ED5" unicode="&#x1ed5;" horiz-adv-x="603" 
d="M301 504q115 0 189 -72t74 -185t-74 -185t-189 -72t-188.5 72t-73.5 185t73.5 185t188.5 72zM301 89q67 0 109 43.5t42 114.5t-42 115t-109 44t-108.5 -44t-41.5 -115t41.5 -114.5t108.5 -43.5zM552 738q0 -30 -23 -53t-68 -35l-41 -11v60l30 9q13 4 20 11t7 17
q0 11 -11 18t-29 7q-22 0 -33.5 -7.5t-12.5 -22.5h-75q1 42 33.5 67t88.5 25q53 0 83.5 -23t30.5 -62zM460 540h-93l-65 86l-66 -86h-93l106 150h105z" />
    <glyph glyph-name="uni1ED6" unicode="&#x1ed6;" horiz-adv-x="748" 
d="M374 650q143 0 236.5 -93.5t93.5 -236.5q0 -144 -93.5 -237t-236.5 -93t-236.5 93t-93.5 237q0 143 93.5 236.5t236.5 93.5zM374 95q95 0 154 62t59 163t-59 163.5t-154 62.5t-154 -62.5t-59 -163.5t59 -163t154 -62zM317 972q19 0 36.5 -9t41.5 -36q14 -15 20 -19t11 -4
q13 0 18.5 13.5t5.5 45.5h69q0 -64 -21.5 -96t-65.5 -32q-19 0 -36.5 9t-41.5 36q-13 15 -19 19t-11 4q-14 0 -19.5 -13.5t-5.5 -45.5h-69q0 64 21.5 96t65.5 32zM533 690h-94l-64 70l-65 -70h-94l106 127h105z" />
    <glyph glyph-name="uni1ED7" unicode="&#x1ed7;" horiz-adv-x="603" 
d="M301 504q115 0 189 -72t74 -185t-74 -185t-189 -72t-188.5 72t-73.5 185t73.5 185t188.5 72zM301 89q67 0 109 43.5t42 114.5t-42 115t-109 44t-108.5 -44t-41.5 -115t41.5 -114.5t108.5 -43.5zM243 822q19 0 36.5 -9t41.5 -36q14 -15 20 -19t11 -4q13 0 18.5 13.5
t5.5 45.5h69q0 -64 -21.5 -96t-65.5 -32q-19 0 -36.5 9t-41.5 36q-13 15 -19 19t-11 4q-14 0 -19.5 -13.5t-5.5 -45.5h-69q0 64 21.5 96t65.5 32zM459 540h-94l-64 70l-65 -70h-94l106 127h105z" />
    <glyph glyph-name="uni1ED8" unicode="&#x1ed8;" horiz-adv-x="748" 
d="M374 650q143 0 236.5 -93.5t93.5 -236.5q0 -144 -93.5 -237t-236.5 -93t-236.5 93t-93.5 237q0 143 93.5 236.5t236.5 93.5zM374 95q95 0 154 62t59 163t-59 163.5t-154 62.5t-154 -62.5t-59 -163.5t59 -163t154 -62zM533 690h-93l-65 86l-66 -86h-93l106 150h105z
M318 -190v114h115v-114h-115z" />
    <glyph glyph-name="uni1ED9" unicode="&#x1ed9;" horiz-adv-x="603" 
d="M301 504q115 0 189 -72t74 -185t-74 -185t-189 -72t-188.5 72t-73.5 185t73.5 185t188.5 72zM301 89q67 0 109 43.5t42 114.5t-42 115t-109 44t-108.5 -44t-41.5 -115t41.5 -114.5t108.5 -43.5zM459 540h-93l-65 86l-66 -86h-93l106 150h105zM244 -190v114h115v-114h-115
z" />
    <glyph glyph-name="uni1EDA" unicode="&#x1eda;" horiz-adv-x="760" 
d="M597 557q52 -41 79.5 -102t27.5 -135q0 -144 -93.5 -237t-236.5 -93t-236.5 93t-93.5 237q0 143 93.5 236.5t236.5 93.5q21 0 42.5 -1t58.5 -5q30 -2 44 -3t27 -1q42 0 64.5 20.5t22.5 58.5v15h104v-26q0 -59 -37.5 -99t-102.5 -52zM374 95q95 0 154 62t59 163t-59 163.5
t-154 62.5t-154 -62.5t-59 -163.5t59 -163t154 -62zM327 690l100 150h114l-118 -150h-96z" />
    <glyph glyph-name="uni1EDB" unicode="&#x1edb;" horiz-adv-x="630" 
d="M493 410q35 -32 53 -75t18 -93q0 -110 -74.5 -181t-188.5 -71t-188 72t-74 185t74 185t188 72q19 0 37.5 -1t51.5 -5l37.5 -3t23.5 -1q38 0 58.5 20.5t20.5 58.5v15h104v-26q0 -61 -38 -101.5t-103 -50.5zM301 89q67 0 109 43.5t42 114.5t-42 115t-109 44t-108 -44
t-41 -115t41 -114.5t108 -43.5zM240 539l100 150h114l-118 -150h-96z" />
    <glyph glyph-name="uni1EDC" unicode="&#x1edc;" horiz-adv-x="760" 
d="M597 557q52 -41 79.5 -102t27.5 -135q0 -144 -93.5 -237t-236.5 -93t-236.5 93t-93.5 237q0 143 93.5 236.5t236.5 93.5q21 0 42.5 -1t58.5 -5q30 -2 44 -3t27 -1q42 0 64.5 20.5t22.5 58.5v15h104v-26q0 -59 -37.5 -99t-102.5 -52zM374 95q95 0 154 62t59 163t-59 163.5
t-154 62.5t-154 -62.5t-59 -163.5t59 -163t154 -62zM209 840h114l100 -150h-96z" />
    <glyph glyph-name="uni1EDD" unicode="&#x1edd;" horiz-adv-x="630" 
d="M493 410q35 -32 53 -75t18 -93q0 -110 -74.5 -181t-188.5 -71t-188 72t-74 185t74 185t188 72q19 0 37.5 -1t51.5 -5l37.5 -3t23.5 -1q38 0 58.5 20.5t20.5 58.5v15h104v-26q0 -61 -38 -101.5t-103 -50.5zM301 89q67 0 109 43.5t42 114.5t-42 115t-109 44t-108 -44
t-41 -115t41 -114.5t108 -43.5zM122 689h114l100 -150h-96z" />
    <glyph glyph-name="uni1EDE" unicode="&#x1ede;" horiz-adv-x="760" 
d="M597 557q52 -41 79.5 -102t27.5 -135q0 -144 -93.5 -237t-236.5 -93t-236.5 93t-93.5 237q0 143 93.5 236.5t236.5 93.5q21 0 42.5 -1t58.5 -5q30 -2 44 -3t27 -1q42 0 64.5 20.5t22.5 58.5v15h104v-26q0 -59 -37.5 -99t-102.5 -52zM374 95q95 0 154 62t59 163t-59 163.5
t-154 62.5t-154 -62.5t-59 -163.5t59 -163t154 -62zM500 779q0 -34 -25 -56.5t-75 -33.5l-52 -10v59l36 8q18 4 26.5 12t8.5 20q0 15 -11.5 23t-32.5 8q-22 0 -34.5 -9.5t-13.5 -27.5h-80q0 47 35.5 76t92.5 29q56 0 90.5 -27t34.5 -71z" />
    <glyph glyph-name="uni1EDF" unicode="&#x1edf;" horiz-adv-x="630" 
d="M493 410q35 -32 53 -75t18 -93q0 -110 -74.5 -181t-188.5 -71t-188 72t-74 185t74 185t188 72q19 0 37.5 -1t51.5 -5l37.5 -3t23.5 -1q38 0 58.5 20.5t20.5 58.5v15h104v-26q0 -61 -38 -101.5t-103 -50.5zM301 89q67 0 109 43.5t42 114.5t-42 115t-109 44t-108 -44
t-41 -115t41 -114.5t108 -43.5zM413 628q0 -34 -25 -56.5t-75 -33.5l-52 -10v59l36 8q18 4 26.5 12t8.5 20q0 15 -11.5 23t-32.5 8q-22 0 -34.5 -9.5t-13.5 -27.5h-80q0 47 35.5 76t92.5 29q56 0 90.5 -27t34.5 -71z" />
    <glyph glyph-name="uni1EE0" unicode="&#x1ee0;" horiz-adv-x="760" 
d="M597 557q52 -41 79.5 -102t27.5 -135q0 -144 -93.5 -237t-236.5 -93t-236.5 93t-93.5 237q0 143 93.5 236.5t236.5 93.5q21 0 42.5 -1t58.5 -5q30 -2 44 -3t27 -1q42 0 64.5 20.5t22.5 58.5v15h104v-26q0 -59 -37.5 -99t-102.5 -52zM374 95q95 0 154 62t59 163t-59 163.5
t-154 62.5t-154 -62.5t-59 -163.5t59 -163t154 -62zM310 834q22 0 41.5 -9.5t47.5 -36.5q14 -14 20.5 -18t12.5 -4q12 0 17.5 14t5.5 45h71q0 -65 -21.5 -97.5t-65.5 -32.5q-22 0 -41 9t-46 36q-15 15 -22 19t-13 4q-12 0 -17.5 -14t-5.5 -45h-71q0 65 21.5 97.5t65.5 32.5z
" />
    <glyph glyph-name="uni1EE1" unicode="&#x1ee1;" horiz-adv-x="630" 
d="M493 410q35 -32 53 -75t18 -93q0 -110 -74.5 -181t-188.5 -71t-188 72t-74 185t74 185t188 72q19 0 37.5 -1t51.5 -5l37.5 -3t23.5 -1q38 0 58.5 20.5t20.5 58.5v15h104v-26q0 -61 -38 -101.5t-103 -50.5zM301 89q67 0 109 43.5t42 114.5t-42 115t-109 44t-108 -44
t-41 -115t41 -114.5t108 -43.5zM223 683q22 0 41.5 -9.5t47.5 -36.5q14 -14 20.5 -18t12.5 -4q12 0 17.5 14t5.5 45h71q0 -65 -21.5 -97.5t-65.5 -32.5q-22 0 -41 9t-46 36q-15 15 -22 19t-13 4q-12 0 -17.5 -14t-5.5 -45h-71q0 65 21.5 97.5t65.5 32.5z" />
    <glyph glyph-name="uni1EE2" unicode="&#x1ee2;" horiz-adv-x="760" 
d="M597 557q52 -41 79.5 -102t27.5 -135q0 -144 -93.5 -237t-236.5 -93t-236.5 93t-93.5 237q0 143 93.5 236.5t236.5 93.5q21 0 42.5 -1t58.5 -5q30 -2 44 -3t27 -1q42 0 64.5 20.5t22.5 58.5v15h104v-26q0 -59 -37.5 -99t-102.5 -52zM374 95q95 0 154 62t59 163t-59 163.5
t-154 62.5t-154 -62.5t-59 -163.5t59 -163t154 -62zM318 -190v114h115v-114h-115z" />
    <glyph glyph-name="uni1EE3" unicode="&#x1ee3;" horiz-adv-x="630" 
d="M493 410q35 -32 53 -75t18 -93q0 -110 -74.5 -181t-188.5 -71t-188 72t-74 185t74 185t188 72q19 0 37.5 -1t51.5 -5l37.5 -3t23.5 -1q38 0 58.5 20.5t20.5 58.5v15h104v-26q0 -61 -38 -101.5t-103 -50.5zM301 89q67 0 109 43.5t42 114.5t-42 115t-109 44t-108 -44
t-41 -115t41 -114.5t108 -43.5zM246 -190v114h115v-114h-115z" />
    <glyph glyph-name="uni1EE4" unicode="&#x1ee4;" horiz-adv-x="706" 
d="M353 -10q-136 0 -210 73t-74 207v370h114v-366q0 -88 43 -133.5t127 -45.5q83 0 126.5 45.5t43.5 133.5v366h114v-370q0 -134 -74 -207t-210 -73zM297 -190v114h115v-114h-115z" />
    <glyph glyph-name="uni1EE5" unicode="&#x1ee5;" horiz-adv-x="581" 
d="M290 -10q-105 0 -167 57.5t-62 154.5v292h111v-281q0 -58 31.5 -91t86.5 -33q56 0 87.5 33t31.5 91v281h111v-292q0 -96 -63 -154t-167 -58zM234 -190v114h115v-114h-115z" />
    <glyph glyph-name="uni1EE6" unicode="&#x1ee6;" horiz-adv-x="706" 
d="M353 -10q-136 0 -210 73t-74 207v370h114v-366q0 -88 43 -133.5t127 -45.5q83 0 126.5 45.5t43.5 133.5v366h114v-370q0 -134 -74 -207t-210 -73zM479 779q0 -34 -25 -56.5t-75 -33.5l-52 -10v59l36 8q18 4 26.5 12t8.5 20q0 15 -11.5 23t-32.5 8q-22 0 -34.5 -9.5
t-13.5 -27.5h-80q0 47 35.5 76t92.5 29q56 0 90.5 -27t34.5 -71z" />
    <glyph glyph-name="uni1EE7" unicode="&#x1ee7;" horiz-adv-x="581" 
d="M290 -10q-105 0 -167 57.5t-62 154.5v292h111v-281q0 -58 31.5 -91t86.5 -33q56 0 87.5 33t31.5 91v281h111v-292q0 -96 -63 -154t-167 -58zM416 629q0 -34 -25 -56.5t-75 -33.5l-52 -10v59l36 8q18 4 26.5 12t8.5 20q0 15 -11.5 23t-32.5 8q-22 0 -34.5 -9.5
t-13.5 -27.5h-80q0 47 35.5 76t92.5 29q56 0 90.5 -27t34.5 -71z" />
    <glyph glyph-name="uni1EE8" unicode="&#x1ee8;" horiz-adv-x="784" 
d="M353 -10q-136 0 -210 73t-74 207v370h114v-366q0 -88 43 -133.5t127 -45.5q83 0 126.5 45.5t43.5 133.5v366h86q38 0 59 20.5t21 58.5v15h104v-26q0 -64 -41.5 -105t-114.5 -49v-284q0 -134 -74 -207t-210 -73zM306 690l100 150h114l-118 -150h-96z" />
    <glyph glyph-name="uni1EE9" unicode="&#x1ee9;" horiz-adv-x="646" 
d="M290 -10q-105 0 -167 57.5t-62 154.5v292h111v-281q0 -58 31.5 -91t86.5 -33q56 0 87.5 33t31.5 91v281h73q35 0 54 20.5t19 58.5v15h104v-26q0 -64 -37 -105.5t-102 -51.5v-203q0 -96 -63 -154t-167 -58zM243 540l100 150h114l-118 -150h-96z" />
    <glyph glyph-name="uni1EEA" unicode="&#x1eea;" horiz-adv-x="784" 
d="M353 -10q-136 0 -210 73t-74 207v370h114v-366q0 -88 43 -133.5t127 -45.5q83 0 126.5 45.5t43.5 133.5v366h86q38 0 59 20.5t21 58.5v15h104v-26q0 -64 -41.5 -105t-114.5 -49v-284q0 -134 -74 -207t-210 -73zM188 840h114l100 -150h-96z" />
    <glyph glyph-name="uni1EEB" unicode="&#x1eeb;" horiz-adv-x="646" 
d="M290 -10q-105 0 -167 57.5t-62 154.5v292h111v-281q0 -58 31.5 -91t86.5 -33q56 0 87.5 33t31.5 91v281h73q35 0 54 20.5t19 58.5v15h104v-26q0 -64 -37 -105.5t-102 -51.5v-203q0 -96 -63 -154t-167 -58zM125 690h114l100 -150h-96z" />
    <glyph glyph-name="uni1EEC" unicode="&#x1eec;" horiz-adv-x="784" 
d="M353 -10q-136 0 -210 73t-74 207v370h114v-366q0 -88 43 -133.5t127 -45.5q83 0 126.5 45.5t43.5 133.5v366h86q38 0 59 20.5t21 58.5v15h104v-26q0 -64 -41.5 -105t-114.5 -49v-284q0 -134 -74 -207t-210 -73zM479 779q0 -34 -25 -56.5t-75 -33.5l-52 -10v59l36 8
q18 4 26.5 12t8.5 20q0 15 -11.5 23t-32.5 8q-22 0 -34.5 -9.5t-13.5 -27.5h-80q0 47 35.5 76t92.5 29q56 0 90.5 -27t34.5 -71z" />
    <glyph glyph-name="uni1EED" unicode="&#x1eed;" horiz-adv-x="646" 
d="M290 -10q-105 0 -167 57.5t-62 154.5v292h111v-281q0 -58 31.5 -91t86.5 -33q56 0 87.5 33t31.5 91v281h73q35 0 54 20.5t19 58.5v15h104v-26q0 -64 -37 -105.5t-102 -51.5v-203q0 -96 -63 -154t-167 -58zM416 629q0 -34 -25 -56.5t-75 -33.5l-52 -10v59l36 8
q18 4 26.5 12t8.5 20q0 15 -11.5 23t-32.5 8q-22 0 -34.5 -9.5t-13.5 -27.5h-80q0 47 35.5 76t92.5 29q56 0 90.5 -27t34.5 -71z" />
    <glyph glyph-name="uni1EEE" unicode="&#x1eee;" horiz-adv-x="784" 
d="M353 -10q-136 0 -210 73t-74 207v370h114v-366q0 -88 43 -133.5t127 -45.5q83 0 126.5 45.5t43.5 133.5v366h86q38 0 59 20.5t21 58.5v15h104v-26q0 -64 -41.5 -105t-114.5 -49v-284q0 -134 -74 -207t-210 -73zM289 834q22 0 41.5 -9.5t47.5 -36.5q14 -14 20.5 -18
t12.5 -4q12 0 17.5 14t5.5 45h71q0 -65 -21.5 -97.5t-65.5 -32.5q-22 0 -41 9t-46 36q-15 15 -22 19t-13 4q-12 0 -17.5 -14t-5.5 -45h-71q0 65 21.5 97.5t65.5 32.5z" />
    <glyph glyph-name="uni1EEF" unicode="&#x1eef;" horiz-adv-x="646" 
d="M290 -10q-105 0 -167 57.5t-62 154.5v292h111v-281q0 -58 31.5 -91t86.5 -33q56 0 87.5 33t31.5 91v281h73q35 0 54 20.5t19 58.5v15h104v-26q0 -64 -37 -105.5t-102 -51.5v-203q0 -96 -63 -154t-167 -58zM226 684q22 0 41.5 -9.5t47.5 -36.5q14 -14 20.5 -18t12.5 -4
q12 0 17.5 14t5.5 45h71q0 -65 -21.5 -97.5t-65.5 -32.5q-22 0 -41 9t-46 36q-15 15 -22 19t-13 4q-12 0 -17.5 -14t-5.5 -45h-71q0 65 21.5 97.5t65.5 32.5z" />
    <glyph glyph-name="uni1EF0" unicode="&#x1ef0;" horiz-adv-x="784" 
d="M353 -10q-136 0 -210 73t-74 207v370h114v-366q0 -88 43 -133.5t127 -45.5q83 0 126.5 45.5t43.5 133.5v366h86q38 0 59 20.5t21 58.5v15h104v-26q0 -64 -41.5 -105t-114.5 -49v-284q0 -134 -74 -207t-210 -73zM297 -190v114h115v-114h-115z" />
    <glyph glyph-name="uni1EF1" unicode="&#x1ef1;" horiz-adv-x="646" 
d="M290 -10q-105 0 -167 57.5t-62 154.5v292h111v-281q0 -58 31.5 -91t86.5 -33q56 0 87.5 33t31.5 91v281h73q35 0 54 20.5t19 58.5v15h104v-26q0 -64 -37 -105.5t-102 -51.5v-203q0 -96 -63 -154t-167 -58zM234 -190v114h115v-114h-115z" />
    <glyph glyph-name="Ygrave" unicode="&#x1ef2;" horiz-adv-x="648" 
d="M514 640h126l-260 -385v-255h-114v255l-258 385h133l186 -283zM159 840h114l100 -150h-96z" />
    <glyph glyph-name="ygrave" unicode="&#x1ef3;" horiz-adv-x="555" 
d="M235 -19l8 22h-36l-196 491h116l154 -394l150 394h112l-212 -544q-28 -76 -71.5 -108t-125.5 -32h-69v99h63q48 0 69.5 15.5t37.5 56.5zM112 690h114l100 -150h-96z" />
    <glyph glyph-name="uni1EF4" unicode="&#x1ef4;" horiz-adv-x="648" 
d="M514 640h126l-260 -385v-255h-114v255l-258 385h133l186 -283zM266 -190v114h115v-114h-115z" />
    <glyph glyph-name="uni1EF5" unicode="&#x1ef5;" horiz-adv-x="555" 
d="M235 -19l8 22h-36l-196 491h116l154 -394l150 394h112l-212 -544q-28 -76 -71.5 -108t-125.5 -32h-69v99h63q48 0 69.5 15.5t37.5 56.5zM385 -190v114h115v-114h-115z" />
    <glyph glyph-name="uni1EF6" unicode="&#x1ef6;" horiz-adv-x="648" 
d="M514 640h126l-260 -385v-255h-114v255l-258 385h133l186 -283zM450 779q0 -34 -25 -56.5t-75 -33.5l-52 -10v59l36 8q18 4 26.5 12t8.5 20q0 15 -11.5 23t-32.5 8q-22 0 -34.5 -9.5t-13.5 -27.5h-80q0 47 35.5 76t92.5 29q56 0 90.5 -27t34.5 -71z" />
    <glyph glyph-name="uni1EF7" unicode="&#x1ef7;" horiz-adv-x="555" 
d="M235 -19l8 22h-36l-196 491h116l154 -394l150 394h112l-212 -544q-28 -76 -71.5 -108t-125.5 -32h-69v99h63q48 0 69.5 15.5t37.5 56.5zM403 629q0 -34 -25 -56.5t-75 -33.5l-52 -10v59l36 8q18 4 26.5 12t8.5 20q0 15 -11.5 23t-32.5 8q-22 0 -34.5 -9.5t-13.5 -27.5
h-80q0 47 35.5 76t92.5 29q56 0 90.5 -27t34.5 -71z" />
    <glyph glyph-name="endash" unicode="&#x2013;" horiz-adv-x="500" 
d="M455 234h-410v94h410v-94z" />
    <glyph glyph-name="emdash" unicode="&#x2014;" horiz-adv-x="1000" 
d="M955 234h-910v94h910v-94z" />
    <glyph glyph-name="quoteleft" unicode="&#x2018;" horiz-adv-x="228" 
d="M198 640l-51 -269h-123l74 269h100z" />
    <glyph glyph-name="quoteright" unicode="&#x2019;" horiz-adv-x="228" 
d="M30 371l51 269h123l-74 -269h-100z" />
    <glyph glyph-name="quotesinglbase" unicode="&#x201a;" horiz-adv-x="224" 
d="M13 -148l51 269h123l-74 -269h-100z" />
    <glyph glyph-name="quotedblleft" unicode="&#x201c;" horiz-adv-x="446" 
d="M416 640l-51 -269h-123l74 269h100zM198 640l-51 -269h-123l74 269h100z" />
    <glyph glyph-name="quotedblright" unicode="&#x201d;" horiz-adv-x="446" 
d="M30 371l51 269h123l-74 -269h-100zM248 371l51 269h123l-74 -269h-100z" />
    <glyph glyph-name="quotedblbase" unicode="&#x201e;" horiz-adv-x="439" 
d="M10 -148l51 269h123l-74 -269h-100zM228 -148l51 269h123l-74 -269h-100z" />
    <glyph glyph-name="dagger" unicode="&#x2020;" horiz-adv-x="514" 
d="M314 -134h-114v548h-176v94h176v182h114v-182h176v-94h-176v-548z" />
    <glyph glyph-name="daggerdbl" unicode="&#x2021;" horiz-adv-x="549" 
d="M217 48h-176v94h176v272h-176v94h176v182h114v-182h176v-94h-176v-272h176v-94h-176v-182h-114v182z" />
    <glyph glyph-name="bullet" unicode="&#x2022;" horiz-adv-x="224" 
d="M33 204v155h159v-155h-159z" />
    <glyph glyph-name="ellipsis" unicode="&#x2026;" horiz-adv-x="688" 
d="M511 0v121h125v-121h-125zM51 0v121h125v-121h-125zM281 0v121h125v-121h-125z" />
    <glyph glyph-name="perthousand" unicode="&#x2030;" horiz-adv-x="1339" 
d="M417 465q0 -81 -53.5 -132.5t-137.5 -51.5q-85 0 -138.5 51.5t-53.5 132.5t54 133t138 52t137.5 -51.5t53.5 -133.5zM320 0h-109l394 640h109zM130 465q0 -43 26.5 -69.5t69.5 -26.5q41 0 67.5 26.5t26.5 69.5t-26.5 70t-67.5 27q-42 0 -69 -27t-27 -70zM891 174
q0 -81 -53.5 -132.5t-138.5 -51.5q-84 0 -138 51.5t-54 132.5t54 133t138 52t138 -52t54 -133zM1306 174q0 -81 -53.5 -132.5t-137.5 -51.5q-85 0 -139 51.5t-54 132.5t54 133t139 52q84 0 137.5 -52t53.5 -133zM604 175q0 -43 26.5 -70t68.5 -27t68.5 27t26.5 70
q0 42 -26.5 69t-68.5 27q-41 0 -68 -27t-27 -69zM1019 175q0 -43 26.5 -70t69.5 -27q42 0 68 27t26 70q0 42 -26.5 69t-67.5 27q-42 0 -69 -27t-27 -69z" />
    <glyph glyph-name="guilsinglleft" unicode="&#x2039;" horiz-adv-x="300" 
d="M157 0l-132 247l132 247h114l-132 -247l132 -247h-114z" />
    <glyph glyph-name="guilsinglright" unicode="&#x203a;" horiz-adv-x="300" 
d="M143 494l133 -247l-133 -247h-114l133 247l-133 247h114z" />
    <glyph glyph-name="fraction" unicode="&#x2044;" horiz-adv-x="192" 
d="M-5 0h-101l304 640h101z" />
    <glyph glyph-name="zerosuperior" unicode="&#x2070;" horiz-adv-x="380" 
d="M23 567q0 89 46 143.5t121 54.5t121 -54.5t46 -143.5t-46 -143.5t-121 -54.5t-121 54.5t-46 143.5zM266 566q0 54 -20.5 85.5t-55.5 31.5t-56 -32t-21 -85t20.5 -84.5t56.5 -31.5t56 30.5t20 85.5z" />
    <glyph glyph-name="foursuperior" unicode="&#x2074;" horiz-adv-x="356" 
d="M283 375h-85v75h-182v74l174 235h93v-235h59v-74h-59v-75zM201 656l-98 -132h98v132z" />
    <glyph glyph-name="fivesuperior" unicode="&#x2075;" horiz-adv-x="329" 
d="M108 533h-77l23 226h231v-76h-162l-7 -71q15 6 31 9.5t31 3.5q58 0 94.5 -33.5t36.5 -87.5q0 -59 -39 -97t-100 -38t-101 33t-44 86h86q2 -20 17.5 -32.5t38.5 -12.5q26 0 42.5 16t16.5 42q0 25 -17.5 41t-44.5 16q-18 0 -32.5 -6.5t-23.5 -18.5z" />
    <glyph glyph-name="sixsuperior" unicode="&#x2076;" horiz-adv-x="333" 
d="M60 627l80 132h94l-75 -121q3 1 7 1h11q61 0 100 -36.5t39 -92.5q0 -61 -43 -101t-108 -40t-106 39t-41 101q0 29 9.5 54.5t32.5 63.5zM99 510q0 -28 18 -45t48 -17t48 17t18 45t-18 44.5t-48 16.5t-48 -16.5t-18 -44.5z" />
    <glyph glyph-name="sevensuperior" unicode="&#x2077;" horiz-adv-x="305" 
d="M192 683h-179v76h275v-76l-138 -308h-96z" />
    <glyph glyph-name="eightsuperior" unicode="&#x2078;" horiz-adv-x="344" 
d="M33 655q0 48 39.5 79t99.5 31q61 0 100.5 -31t39.5 -79q0 -26 -12.5 -47t-35.5 -35q28 -15 43 -38t15 -51q0 -49 -42.5 -82t-107.5 -33q-64 0 -106.5 32.5t-42.5 82.5q0 29 14.5 51.5t42.5 37.5q-23 14 -35 35t-12 47zM172 605q28 0 43 11.5t15 31.5q0 19 -16 31t-42 12
q-27 0 -43 -12t-16 -32t15.5 -31t43.5 -11zM172 446q28 0 45.5 13.5t17.5 34.5t-17.5 34.5t-45.5 13.5q-27 0 -45.5 -13.5t-18.5 -34.5t18 -34.5t46 -13.5z" />
    <glyph glyph-name="ninesuperior" unicode="&#x2079;" horiz-adv-x="333" 
d="M273 507l-80 -132h-95l76 121q-3 -1 -6.5 -1h-10.5q-62 0 -101 36.5t-39 92.5q0 61 43 101t108 40t106 -39t41 -101q0 -29 -9.5 -54.5t-32.5 -63.5zM235 624q0 29 -18.5 46t-48.5 17t-48 -17t-18 -46q0 -28 18 -44.5t48 -16.5t48.5 16.5t18.5 44.5z" />
    <glyph glyph-name="zeroinferior" unicode="&#x2080;" horiz-adv-x="380" 
d="M23 73q0 89 46 143.5t121 54.5t121 -54.5t46 -143.5t-46 -143.5t-121 -54.5t-121 54.5t-46 143.5zM266 72q0 54 -20.5 85.5t-55.5 31.5t-56 -32t-21 -85t20.5 -84.5t56.5 -31.5t56 30.5t20 85.5z" />
    <glyph glyph-name="oneinferior" unicode="&#x2081;" horiz-adv-x="222" 
d="M180 265v-384h-88v302h-76l25 82h139z" />
    <glyph glyph-name="twoinferior" unicode="&#x2082;" horiz-adv-x="331" 
d="M303 -119h-275v76l131 108q30 25 40 41t10 37q0 22 -14 36.5t-35 14.5t-34.5 -14t-15.5 -37h-86q0 56 40 92t102 36q60 0 96.5 -34t36.5 -89q0 -37 -20 -69.5t-67 -70.5l-62 -51h153v-76z" />
    <glyph glyph-name="threeinferior" unicode="&#x2083;" horiz-adv-x="324" 
d="M247 78q26 -13 39.5 -36.5t13.5 -53.5q0 -48 -39.5 -80.5t-98.5 -32.5q-60 0 -100 33t-44 85h85q5 -21 20 -32.5t38 -11.5q25 0 39.5 12t14.5 33t-14 34.5t-36 13.5h-72v69h67q20 0 33 11.5t13 29.5q0 21 -13 33t-35 12t-35.5 -11.5t-17.5 -32.5h-85q4 52 42.5 85
t95.5 33q59 0 96 -31.5t37 -82.5q0 -26 -11.5 -46.5t-32.5 -32.5z" />
    <glyph glyph-name="fourinferior" unicode="&#x2084;" horiz-adv-x="356" 
d="M283 -119h-85v75h-182v74l174 235h93v-235h59v-74h-59v-75zM201 162l-98 -132h98v132z" />
    <glyph glyph-name="fiveinferior" unicode="&#x2085;" horiz-adv-x="329" 
d="M108 39h-77l23 226h231v-76h-162l-7 -71q15 6 31 9.5t31 3.5q58 0 94.5 -33.5t36.5 -87.5q0 -59 -39 -97t-100 -38t-101 33t-44 86h86q2 -20 17.5 -32.5t38.5 -12.5q26 0 42.5 16t16.5 42q0 25 -17.5 41t-44.5 16q-18 0 -32.5 -6.5t-23.5 -18.5z" />
    <glyph glyph-name="sixinferior" unicode="&#x2086;" horiz-adv-x="333" 
d="M60 133l80 132h94l-75 -121q3 1 7 1h11q61 0 100 -36.5t39 -92.5q0 -61 -43 -101t-108 -40t-106 39t-41 101q0 29 9.5 54.5t32.5 63.5zM99 16q0 -28 18 -45t48 -17t48 17t18 45t-18 44.5t-48 16.5t-48 -16.5t-18 -44.5z" />
    <glyph glyph-name="seveninferior" unicode="&#x2087;" horiz-adv-x="305" 
d="M192 189h-179v76h275v-76l-138 -308h-96z" />
    <glyph glyph-name="eightinferior" unicode="&#x2088;" horiz-adv-x="344" 
d="M33 161q0 48 39.5 79t99.5 31q61 0 100.5 -31t39.5 -79q0 -26 -12.5 -47t-35.5 -35q28 -15 43 -38t15 -51q0 -49 -42.5 -82t-107.5 -33q-64 0 -106.5 32.5t-42.5 82.5q0 29 14.5 51.5t42.5 37.5q-23 14 -35 35t-12 47zM172 111q28 0 43 11.5t15 31.5q0 19 -16 31t-42 12
q-27 0 -43 -12t-16 -32t15.5 -31t43.5 -11zM172 -48q28 0 45.5 13.5t17.5 34.5t-17.5 34.5t-45.5 13.5q-27 0 -45.5 -13.5t-18.5 -34.5t18 -34.5t46 -13.5z" />
    <glyph glyph-name="nineinferior" unicode="&#x2089;" horiz-adv-x="333" 
d="M273 13l-80 -132h-95l76 121q-3 -1 -6.5 -1h-10.5q-62 0 -101 36.5t-39 92.5q0 61 43 101t108 40t106 -39t41 -101q0 -29 -9.5 -54.5t-32.5 -63.5zM235 130q0 29 -18.5 46t-48.5 17t-48 -17t-18 -46q0 -28 18 -44.5t48 -16.5t48.5 16.5t18.5 44.5z" />
    <glyph glyph-name="colonmonetary" unicode="&#x20a1;" horiz-adv-x="729" 
d="M572 258h119q-20 -120 -107.5 -194t-208.5 -74l-34 -89h-100l38 101q-20 6 -34.5 11.5t-26.5 11.5l-48 -124h-99l69 180q-46 45 -70.5 107t-24.5 132q0 140 88.5 232.5t225.5 97.5l35 89h99l-38 -99q15 -3 30.5 -8.5t31.5 -13.5l47 121h100l-68 -175q38 -35 62 -81.5
t33 -100.5h-119q-18 77 -71 120.5t-130 43.5q-93 0 -151 -62t-58 -164q0 -101 58 -163t151 -62q77 0 130 43t71 120z" />
    <glyph glyph-name="uni20A9" unicode="&#x20a9;" horiz-adv-x="1047" 
d="M202 186h-156v79h132l-20 66h-112v79h88l-70 230h121l141 -487l150 365l-47 122h123l177 -475l137 475h117l-69 -230h88v-79h-112l-20 -66h132v-79h-156l-56 -186h-113l-147 379l-159 -379h-113z" />
    <glyph glyph-name="newsheqel" unicode="&#x20aa;" horiz-adv-x="704" 
d="M173 0h-96v549h228q80 0 120.5 -40.5t40.5 -120.5v-191h-76v162q0 40 -21.5 60.5t-64.5 20.5h-131v-440zM636 549v-354q0 -98 -49 -146.5t-147 -48.5h-194v352h77v-244h117q51 0 75 21t24 66v354h97z" />
    <glyph glyph-name="dong" unicode="&#x20ab;" horiz-adv-x="658" 
d="M553 561v-561h-80l-20 64q-31 -36 -74.5 -55t-93.5 -19q-104 0 -175 73t-71 184t71 184t175 73q47 0 87 -16.5t70 -48.5v122h-205v79h205v50h111v-50h82v-79h-82zM301 89q65 0 107 44t42 114t-42 114.5t-107 44.5q-66 0 -107.5 -44t-41.5 -115t41.5 -114.5t107.5 -43.5z
M553 -153h-439v82h439v-82z" />
    <glyph glyph-name="Euro" unicode="&#x20ac;" horiz-adv-x="697" 
d="M122 208h-84v79h68q-1 6 -1 12.5v20.5v20.5t1 12.5h-68v79h84q33 100 116.5 159t194.5 59q71 0 132.5 -25t106.5 -72l-63 -79q-38 37 -83 56t-96 19q-64 0 -113.5 -30.5t-75.5 -86.5h252l-21 -79h-252q-1 -14 -1.5 -20.5t-0.5 -12.5t0.5 -12.5t1.5 -20.5h234l-20 -79
h-193q26 -56 75.5 -86.5t113.5 -30.5q51 0 96 19t83 56l63 -79q-45 -47 -106.5 -72t-132.5 -25q-111 0 -194.5 59t-116.5 159z" />
    <glyph glyph-name="uni20AD" unicode="&#x20ad;" horiz-adv-x="696" 
d="M108 279h-83v95h83v266h114v-262h76l238 262h134v-4l-241 -262h174v-95h-161l235 -274v-5h-142l-234 277h-79v-277h-114v279z" />
    <glyph glyph-name="uni20AE" unicode="&#x20ae;" horiz-adv-x="626" 
d="M256 152l-172 -44v80l172 44v65l-172 -44v80l172 44v158h-229v105h572v-105h-229v-129l173 44v-80l-173 -44v-65l173 44v-80l-173 -44v-181h-114v152z" />
    <glyph glyph-name="uni20B1" unicode="&#x20b1;" horiz-adv-x="750" 
d="M121 545v95h261q76 0 131.5 -24t84.5 -71h112v-93h-83q1 -4 1 -9v-16t-1 -22.5t-2 -21.5h85v-93h-126q-32 -38 -83 -57t-119 -19h-147v-214h-114v290h-79v93h79v69h-79v93h79zM519 427q0 55 -34.5 83.5t-99.5 28.5h-150v-224h150q65 0 99.5 28.5t34.5 83.5z" />
    <glyph glyph-name="uni20B4" unicode="&#x20b4;" horiz-adv-x="711" 
d="M104 206h-66v76h103q21 20 58 34t101 26l57 10q2 1 5 1.5t4 0.5h-328v76h438q3 8 4.5 17t1.5 19q0 39 -32.5 61.5t-89.5 22.5q-62 0 -96.5 -21t-38.5 -61h-116q4 84 72 133t179 49q108 0 173 -52t65 -138q0 -8 -0.5 -15.5t-2.5 -14.5h78v-76h-118q-21 -20 -57 -33
t-99 -23l-57 -10q-6 -1 -11.5 -2.5t-10.5 -3.5h353v-76h-447q-2 -6 -3 -13.5t-1 -16.5q0 -40 33.5 -62.5t91.5 -22.5q65 0 106.5 21.5t43.5 55.5h120q-2 -79 -76 -128.5t-192 -49.5q-114 0 -180 53t-66 143v13t1 7z" />
    <glyph glyph-name="uni20B5" unicode="&#x20b5;" horiz-adv-x="728" 
d="M571 258h119q-17 -107 -90.5 -179t-180.5 -86v-92h-98v92q-123 17 -200 107.5t-77 219.5t77 219.5t200 107.5v92h98v-92q106 -14 179.5 -86t91.5 -179h-119q-18 77 -71 120.5t-130 43.5q-93 0 -151 -62t-58 -164q0 -101 58 -163t151 -62q78 0 131 43t70 120z" />
    <glyph glyph-name="uni20B8" unicode="&#x20b8;" horiz-adv-x="650" 
d="M611 535h-572v105h572v-105zM269 351h-230v105h572v-105h-229v-351h-113v351z" />
    <glyph glyph-name="uni20B9" unicode="&#x20b9;" horiz-adv-x="622" 
d="M512 0h-167l-293 221v87h198q51 0 84 20.5t43 58.5h-325v87h323q-13 39 -45 59t-80 20h-198v87h535v-87h-142q16 -15 27.5 -35t17.5 -44h97v-87h-92q-12 -78 -76 -122t-167 -44h-36z" />
    <glyph glyph-name="uni20BA" unicode="&#x20ba;" horiz-adv-x="629" 
d="M116 175l-78 -25v80l78 25v65l-78 -25v80l78 25v240h114v-203l172 55v-80l-172 -55v-65l172 55v-80l-172 -55v-107h147q57 0 80.5 21t23.5 71v65h114v-73q0 -92 -51 -140.5t-148 -48.5h-280v175z" />
    <glyph glyph-name="uni20BC" unicode="&#x20bc;" horiz-adv-x="731" 
d="M309 501v139h114v-139q123 -14 189.5 -87.5t66.5 -196.5v-217h-114v213q0 78 -36.5 124t-109.5 58v-395h-107v395q-72 -12 -109 -58t-37 -124v-213h-114v217q0 124 66.5 197t190.5 87z" />
    <glyph glyph-name="uni20BD" unicode="&#x20bd;" horiz-adv-x="668" 
d="M233 155h148v-79h-148v-76h-114v76h-79v79h79v66h-80v94h80v325h261q121 0 187 -55.5t66 -157.5q0 -99 -66 -152.5t-187 -53.5h-147v-66zM517 427q0 55 -34.5 83.5t-99.5 28.5h-150v-224h150q65 0 99.5 28.5t34.5 83.5z" />
    <glyph glyph-name="uni2113" unicode="&#x2113;" horiz-adv-x="522" 
d="M340 102h87v-102h-82q-146 0 -220 83t-74 247q0 146 65 233t176 87q87 0 139.5 -50.5t52.5 -137.5q0 -99 -72.5 -163.5t-227.5 -106.5q19 -46 57 -68t99 -22zM287 550q-60 0 -92 -56.5t-32 -163.5q0 -10 0.5 -21.5t1.5 -28.5q102 28 152.5 72t50.5 107q0 44 -21 67.5
t-60 23.5z" />
    <glyph glyph-name="uni2116" unicode="&#x2116;" horiz-adv-x="1159" 
d="M1114 465q0 -81 -53.5 -132.5t-137.5 -51.5q-85 0 -138.5 51.5t-53.5 132.5t54 133t138 52t137.5 -51.5t53.5 -133.5zM84 0v640h110l359 -461v461h110v-640h-110l-359 460v-460h-110zM827 465q0 -43 26.5 -69.5t69.5 -26.5q41 0 67.5 26.5t26.5 69.5t-26.5 70t-67.5 27
q-42 0 -69 -27t-27 -70zM1099 140h-354v84h354v-84z" />
    <glyph glyph-name="trademark" unicode="&#x2122;" horiz-adv-x="894" 
d="M658 288h-83l-81 215l-23 -247h-83l36 384h104l91 -246l91 246h102l37 -384h-86l-24 250zM149 559h-130v81h344v-81h-129v-303h-85v303z" />
    <glyph glyph-name="ohm" unicode="&#x2126;" horiz-adv-x="735" 
d="M533 105h123v-105h-229v187q67 20 105 68t38 112q0 81 -56 130t-147 49q-90 0 -146.5 -49.5t-56.5 -129.5q0 -64 38.5 -112t106.5 -68v-187h-230v105h123v23q-73 34 -114 97t-41 142q0 123 91 203t229 80q139 0 229.5 -80t90.5 -203q0 -80 -40.5 -142.5t-113.5 -96.5v-23
z" />
    <glyph glyph-name="estimated" unicode="&#x212e;" horiz-adv-x="776" 
d="M752 314v-9h-583q-3 0 -4 -1t-1 -3v-176q0 -6 2 -11t6 -9q44 -46 101 -71t120 -25q67 0 127 28t105 79h52q-51 -59 -126 -92.5t-159 -33.5q-149 0 -254.5 95t-105.5 229t105.5 229t254.5 95t254.5 -95t105.5 -229zM620 328v178q0 6 -2 11.5t-7 9.5q-44 44 -100.5 68
t-117.5 24q-62 0 -119 -24.5t-101 -70.5q-5 -5 -7 -10t-2 -12v-174q0 -2 1.5 -3.5t3.5 -1.5h447q2 0 3 1.5t1 3.5z" />
    <glyph glyph-name="oneseventh" unicode="&#x2150;" horiz-adv-x="719" 
d="M180 640v-384h-88v302h-76l25 82h139zM217 0h-101l304 640h101zM606 308h-179v76h275v-76l-138 -308h-96z" />
    <glyph glyph-name="oneninth" unicode="&#x2151;" horiz-adv-x="747" 
d="M180 640v-384h-88v302h-76l25 82h139zM217 0h-101l304 640h101zM687 132l-80 -132h-95l76 121q-3 -1 -6.5 -1h-10.5q-62 0 -101 36.5t-39 92.5q0 61 43 101t108 40t106 -39t41 -101q0 -29 -9.5 -54.5t-32.5 -63.5zM649 249q0 29 -18.5 46t-48.5 17t-48 -17t-18 -46
q0 -28 18 -44.5t48 -16.5t48.5 16.5t18.5 44.5z" />
    <glyph glyph-name="onethird" unicode="&#x2153;" horiz-adv-x="738" 
d="M180 640v-384h-88v302h-76l25 82h139zM217 0h-101l304 640h101zM661 197q26 -13 39.5 -36.5t13.5 -53.5q0 -48 -39.5 -80.5t-98.5 -32.5q-60 0 -100 33t-44 85h85q5 -21 20 -32.5t38 -11.5q25 0 39.5 12t14.5 33t-14 34.5t-36 13.5h-72v69h67q20 0 33 11.5t13 29.5
q0 21 -13 33t-35 12t-35.5 -11.5t-17.5 -32.5h-85q4 52 42.5 85t95.5 33q59 0 96 -31.5t37 -82.5q0 -26 -11.5 -46.5t-32.5 -32.5z" />
    <glyph glyph-name="twothirds" unicode="&#x2154;" horiz-adv-x="846" 
d="M303 256h-275v76l131 108q30 25 40 41t10 37q0 22 -14 36.5t-35 14.5t-34.5 -14t-15.5 -37h-86q0 56 40 92t102 36q60 0 96.5 -34t36.5 -89q0 -37 -20 -69.5t-67 -70.5l-62 -51h153v-76zM326 0h-101l304 640h101zM770 197q26 -13 39.5 -36.5t13.5 -53.5
q0 -48 -39.5 -80.5t-98.5 -32.5q-60 0 -100 33t-44 85h85q5 -21 20 -32.5t38 -11.5q25 0 39.5 12t14.5 33t-14 34.5t-36 13.5h-72v69h67q20 0 33 11.5t13 29.5q0 21 -13 33t-35 12t-35.5 -11.5t-17.5 -32.5h-85q4 52 42.5 85t95.5 33q59 0 96 -31.5t37 -82.5
q0 -26 -11.5 -46.5t-32.5 -32.5z" />
    <glyph glyph-name="onefifth" unicode="&#x2155;" horiz-adv-x="743" 
d="M180 640v-384h-88v302h-76l25 82h139zM217 0h-101l304 640h101zM522 158h-77l23 226h231v-76h-162l-7 -71q15 6 31 9.5t31 3.5q58 0 94.5 -33.5t36.5 -87.5q0 -59 -39 -97t-100 -38t-101 33t-44 86h86q2 -20 17.5 -32.5t38.5 -12.5q26 0 42.5 16t16.5 42q0 25 -17.5 41
t-44.5 16q-18 0 -32.5 -6.5t-23.5 -18.5z" />
    <glyph glyph-name="twofifths" unicode="&#x2156;" horiz-adv-x="852" 
d="M303 256h-275v76l131 108q30 25 40 41t10 37q0 22 -14 36.5t-35 14.5t-34.5 -14t-15.5 -37h-86q0 56 40 92t102 36q60 0 96.5 -34t36.5 -89q0 -37 -20 -69.5t-67 -70.5l-62 -51h153v-76zM326 0h-101l304 640h101zM631 158h-77l23 226h231v-76h-162l-7 -71q15 6 31 9.5
t31 3.5q58 0 94.5 -33.5t36.5 -87.5q0 -59 -39 -97t-100 -38t-101 33t-44 86h86q2 -20 17.5 -32.5t38.5 -12.5q26 0 42.5 16t16.5 42q0 25 -17.5 41t-44.5 16q-18 0 -32.5 -6.5t-23.5 -18.5z" />
    <glyph glyph-name="threefifths" unicode="&#x2157;" horiz-adv-x="845" 
d="M247 453q26 -13 39.5 -36.5t13.5 -53.5q0 -48 -39.5 -80.5t-98.5 -32.5q-60 0 -100 33t-44 85h85q5 -21 20 -32.5t38 -11.5q25 0 39.5 12t14.5 33t-14 34.5t-36 13.5h-72v69h67q20 0 33 11.5t13 29.5q0 21 -13 33t-35 12t-35.5 -11.5t-17.5 -32.5h-85q4 52 42.5 85
t95.5 33q59 0 96 -31.5t37 -82.5q0 -26 -11.5 -46.5t-32.5 -32.5zM319 0h-101l304 640h101zM624 158h-77l23 226h231v-76h-162l-7 -71q15 6 31 9.5t31 3.5q58 0 94.5 -33.5t36.5 -87.5q0 -59 -39 -97t-100 -38t-101 33t-44 86h86q2 -20 17.5 -32.5t38.5 -12.5q26 0 42.5 16
t16.5 42q0 25 -17.5 41t-44.5 16q-18 0 -32.5 -6.5t-23.5 -18.5z" />
    <glyph glyph-name="fourfifths" unicode="&#x2158;" horiz-adv-x="877" 
d="M283 256h-85v75h-182v74l174 235h93v-235h59v-74h-59v-75zM201 537l-98 -132h98v132zM351 0h-101l304 640h101zM656 158h-77l23 226h231v-76h-162l-7 -71q15 6 31 9.5t31 3.5q58 0 94.5 -33.5t36.5 -87.5q0 -59 -39 -97t-100 -38t-101 33t-44 86h86q2 -20 17.5 -32.5
t38.5 -12.5q26 0 42.5 16t16.5 42q0 25 -17.5 41t-44.5 16q-18 0 -32.5 -6.5t-23.5 -18.5z" />
    <glyph glyph-name="onesixth" unicode="&#x2159;" horiz-adv-x="741" 
d="M180 640v-384h-88v302h-76l25 82h139zM217 0h-101l304 640h101zM468 252l80 132h94l-75 -121q3 1 7 1h11q61 0 100 -36.5t39 -92.5q0 -61 -43 -101t-108 -40t-106 39t-41 101q0 29 9.5 54.5t32.5 63.5zM507 135q0 -28 18 -45t48 -17t48 17t18 45t-18 44.5t-48 16.5
t-48 -16.5t-18 -44.5z" />
    <glyph glyph-name="fivesixths" unicode="&#x215a;" horiz-adv-x="848" 
d="M108 414h-77l23 226h231v-76h-162l-7 -71q15 6 31 9.5t31 3.5q58 0 94.5 -33.5t36.5 -87.5q0 -59 -39 -97t-100 -38t-101 33t-44 86h86q2 -20 17.5 -32.5t38.5 -12.5q26 0 42.5 16t16.5 42q0 25 -17.5 41t-44.5 16q-18 0 -32.5 -6.5t-23.5 -18.5zM324 0h-101l304 640h101
zM575 252l80 132h94l-75 -121q3 1 7 1h11q61 0 100 -36.5t39 -92.5q0 -61 -43 -101t-108 -40t-106 39t-41 101q0 29 9.5 54.5t32.5 63.5zM614 135q0 -28 18 -45t48 -17t48 17t18 45t-18 44.5t-48 16.5t-48 -16.5t-18 -44.5z" />
    <glyph glyph-name="oneeighth" unicode="&#x215b;" horiz-adv-x="758" 
d="M180 640v-384h-88v302h-76l25 82h139zM217 0h-101l304 640h101zM447 280q0 48 39.5 79t99.5 31q61 0 100.5 -31t39.5 -79q0 -26 -12.5 -47t-35.5 -35q28 -15 43 -38t15 -51q0 -49 -42.5 -82t-107.5 -33q-64 0 -106.5 32.5t-42.5 82.5q0 29 14.5 51.5t42.5 37.5
q-23 14 -35 35t-12 47zM586 230q28 0 43 11.5t15 31.5q0 19 -16 31t-42 12q-27 0 -43 -12t-16 -32t15.5 -31t43.5 -11zM586 71q28 0 45.5 13.5t17.5 34.5t-17.5 34.5t-45.5 13.5q-27 0 -45.5 -13.5t-18.5 -34.5t18 -34.5t46 -13.5z" />
    <glyph glyph-name="threeeighths" unicode="&#x215c;" horiz-adv-x="859" 
d="M247 453q26 -13 39.5 -36.5t13.5 -53.5q0 -48 -39.5 -80.5t-98.5 -32.5q-60 0 -100 33t-44 85h85q5 -21 20 -32.5t38 -11.5q25 0 39.5 12t14.5 33t-14 34.5t-36 13.5h-72v69h67q20 0 33 11.5t13 29.5q0 21 -13 33t-35 12t-35.5 -11.5t-17.5 -32.5h-85q4 52 42.5 85
t95.5 33q59 0 96 -31.5t37 -82.5q0 -26 -11.5 -46.5t-32.5 -32.5zM319 0h-101l304 640h101zM549 280q0 48 39.5 79t99.5 31q61 0 100.5 -31t39.5 -79q0 -26 -12.5 -47t-35.5 -35q28 -15 43 -38t15 -51q0 -49 -42.5 -82t-107.5 -33q-64 0 -106.5 32.5t-42.5 82.5
q0 29 14.5 51.5t42.5 37.5q-23 14 -35 35t-12 47zM688 230q28 0 43 11.5t15 31.5q0 19 -16 31t-42 12q-27 0 -43 -12t-16 -32t15.5 -31t43.5 -11zM688 71q28 0 45.5 13.5t17.5 34.5t-17.5 34.5t-45.5 13.5q-27 0 -45.5 -13.5t-18.5 -34.5t18 -34.5t46 -13.5z" />
    <glyph glyph-name="fiveeighths" unicode="&#x215d;" horiz-adv-x="865" 
d="M108 414h-77l23 226h231v-76h-162l-7 -71q15 6 31 9.5t31 3.5q58 0 94.5 -33.5t36.5 -87.5q0 -59 -39 -97t-100 -38t-101 33t-44 86h86q2 -20 17.5 -32.5t38.5 -12.5q26 0 42.5 16t16.5 42q0 25 -17.5 41t-44.5 16q-18 0 -32.5 -6.5t-23.5 -18.5zM324 0h-101l304 640h101
zM554 280q0 48 39.5 79t99.5 31q61 0 100.5 -31t39.5 -79q0 -26 -12.5 -47t-35.5 -35q28 -15 43 -38t15 -51q0 -49 -42.5 -82t-107.5 -33q-64 0 -106.5 32.5t-42.5 82.5q0 29 14.5 51.5t42.5 37.5q-23 14 -35 35t-12 47zM693 230q28 0 43 11.5t15 31.5q0 19 -16 31t-42 12
q-27 0 -43 -12t-16 -32t15.5 -31t43.5 -11zM693 71q28 0 45.5 13.5t17.5 34.5t-17.5 34.5t-45.5 13.5q-27 0 -45.5 -13.5t-18.5 -34.5t18 -34.5t46 -13.5z" />
    <glyph glyph-name="seveneighths" unicode="&#x215e;" horiz-adv-x="810" 
d="M192 564h-179v76h275v-76l-138 -308h-96zM270 0h-101l304 640h101zM500 280q0 48 39.5 79t99.5 31q61 0 100.5 -31t39.5 -79q0 -26 -12.5 -47t-35.5 -35q28 -15 43 -38t15 -51q0 -49 -42.5 -82t-107.5 -33q-64 0 -106.5 32.5t-42.5 82.5q0 29 14.5 51.5t42.5 37.5
q-23 14 -35 35t-12 47zM639 230q28 0 43 11.5t15 31.5q0 19 -16 31t-42 12q-27 0 -43 -12t-16 -32t15.5 -31t43.5 -11zM639 71q28 0 45.5 13.5t17.5 34.5t-17.5 34.5t-45.5 13.5q-27 0 -45.5 -13.5t-18.5 -34.5t18 -34.5t46 -13.5z" />
    <glyph glyph-name="arrowleft" unicode="&#x2190;" horiz-adv-x="632" 
d="M186 62l-117 219l117 219h107l-92 -172h365v-94h-365l92 -172h-107z" />
    <glyph glyph-name="arrowup" unicode="&#x2191;" horiz-adv-x="576" 
d="M69 412l219 117l219 -117v-107l-172 92v-365h-94v365l-172 -92v107z" />
    <glyph glyph-name="arrowright" unicode="&#x2192;" horiz-adv-x="632" 
d="M446 500l117 -219l-117 -219h-107l92 172h-365v94h365l-92 172h107z" />
    <glyph glyph-name="arrowdown" unicode="&#x2193;" horiz-adv-x="576" 
d="M507 148l-219 -117l-219 117v107l172 -92v365h94v-365l172 92v-107z" />
    <glyph glyph-name="uni2194" unicode="&#x2194;" horiz-adv-x="832" 
d="M186 62l-117 219l117 219h107l-92 -172h430l-92 172h107l117 -219l-117 -219h-107l92 172h-430l92 -172h-107z" />
    <glyph glyph-name="uni2195" unicode="&#x2195;" horiz-adv-x="631" 
d="M534 51l-219 -117l-219 117v107l172 -92v430l-172 -92v107l219 117l219 -117v-107l-171 91v-428l171 91v-107z" />
    <glyph glyph-name="uni2196" unicode="&#x2196;" horiz-adv-x="584" 
d="M72 219l73 237l237 73l76 -76l-188 -57l259 -258l-67 -66l-258 258l-56 -187z" />
    <glyph glyph-name="uni2197" unicode="&#x2197;" horiz-adv-x="584" 
d="M203 528l237 -72l72 -237l-75 -76l-57 186l-258 -258l-67 67l258 258l-186 56z" />
    <glyph glyph-name="uni2198" unicode="&#x2198;" horiz-adv-x="585" 
d="M512 342l-72 -237l-237 -72l-75 76l186 56l-258 258l67 67l258 -258l56 186z" />
    <glyph glyph-name="uni2199" unicode="&#x2199;" horiz-adv-x="584" 
d="M381 32l-237 72l-72 237l75 76l56 -186l258 258l67 -67l-258 -258l187 -56z" />
    <glyph glyph-name="partialdiff" unicode="&#x2202;" horiz-adv-x="558" 
d="M174 640h123l139 -208q47 -69 66.5 -116.5t19.5 -97.5q0 -100 -67 -164t-173 -64t-175.5 65t-69.5 164q0 96 64 156.5t168 60.5q13 0 25 -1t25 -4zM148 219q0 -58 37 -93t97 -35t97 35t37 93t-37 92.5t-97 34.5t-97 -34.5t-37 -92.5z" />
    <glyph glyph-name="increment" unicode="&#x2206;" horiz-adv-x="711" 
d="M649 0h-587v102l234 538h119l234 -538v-102zM353 509l-172 -407h344z" />
    <glyph glyph-name="product" unicode="&#x220f;" horiz-adv-x="728" 
d="M84 -134v774h560v-774h-113v673h-333v-673h-114z" />
    <glyph glyph-name="summation" unicode="&#x2211;" horiz-adv-x="540" 
d="M528 -29v-105h-508v105l238 288l-225 276v105h486v-105h-344l193 -235v-81l-205 -248h365z" />
    <glyph glyph-name="minus" unicode="&#x2212;" 
d="M512 234h-444v94h444v-94z" />
    <glyph glyph-name="uni2215" unicode="&#x2215;" horiz-adv-x="192" 
d="M-5 0h-101l304 640h101z" />
    <glyph glyph-name="radical" unicode="&#x221a;" horiz-adv-x="591" 
d="M105 234h-102v94h165l109 -212l231 524h105l-281 -640h-106z" />
    <glyph glyph-name="infinity" unicode="&#x221e;" horiz-adv-x="766" 
d="M383 154q-25 -38 -65.5 -58.5t-90.5 -21.5q-83 1 -138 56t-55 139t54.5 139t138.5 55q50 1 90.5 -19.5t65.5 -59.5q24 38 64.5 58.5t91.5 21.5q84 -1 138.5 -55.5t54.5 -139.5q0 -84 -54.5 -139t-138.5 -55q-50 -1 -90.5 19.5t-65.5 59.5zM131 269q0 -47 28.5 -76.5
t73.5 -29.5t73.5 29.5t28.5 76.5t-28.5 77t-73.5 30t-73.5 -30t-28.5 -77zM635 269q0 47 -28 76.5t-74 29.5q-45 0 -73.5 -29.5t-28.5 -76.5t28.5 -77t73.5 -30t73.5 30t28.5 77z" />
    <glyph glyph-name="integral" unicode="&#x222b;" horiz-adv-x="324" 
d="M324 541h-49q-42 0 -61 -16t-19 -51v-500q0 -84 -42 -124t-132 -40h-67v99h49q42 0 61 16t19 51v500q0 84 42 124t132 40h67v-99z" />
    <glyph glyph-name="approxequal" unicode="&#x2248;" 
d="M140 309h-85q0 84 34.5 129.5t95.5 45.5q30 0 58.5 -11.5t74.5 -46.5q31 -23 45.5 -30t27.5 -7q24 0 36.5 22t12.5 63h85q0 -84 -34.5 -129.5t-95.5 -45.5q-30 0 -58.5 11.5t-74.5 46.5q-31 23 -45.5 30t-27.5 7q-24 0 -36.5 -22t-12.5 -63zM140 89h-85q0 84 34.5 129.5
t95.5 45.5q30 0 58.5 -11.5t74.5 -46.5q31 -23 45.5 -30t27.5 -7q24 0 36.5 22t12.5 63h85q0 -84 -34.5 -129.5t-95.5 -45.5q-30 0 -59 11.5t-74 46.5q-31 23 -45 30t-26 7q-25 0 -38 -21.5t-13 -63.5z" />
    <glyph glyph-name="notequal" unicode="&#x2260;" 
d="M136 134h-68v94h136l75 106h-211v94h279l68 95h97l-68 -95h68v-94h-136l-75 -106h211v-94h-279l-68 -95h-97z" />
    <glyph glyph-name="lessequal" unicode="&#x2264;" 
d="M512 0h-444v94h401l-401 170v90l444 187v-103l-324 -127l324 -128v-183z" />
    <glyph glyph-name="greaterequal" unicode="&#x2265;" 
d="M512 0h-444v179l323 128l-323 127v107l444 -188v-90l-401 -169h401v-94z" />
    <glyph glyph-name="lozenge" unicode="&#x25ca;" horiz-adv-x="496" 
d="M195 0l-171 320l171 320h106l171 -320l-171 -320h-106zM248 99l118 221l-118 221l-118 -221z" />
    <glyph glyph-name="kgreenlandic.case" horiz-adv-x="789" 
d="M84 0v640h114v-262h76l238 262h134v-4l-276 -301l283 -330v-5h-142l-233 277h-80v-277h-114zM831 640l-100 -150h-114l118 150h96z" />
    <glyph glyph-name="napostrophe.case" horiz-adv-x="877" 
d="M214 0v640h110l359 -461v461h110v-640h-110l-359 460v-460h-110zM172 640l-100 -150h-114l118 150h96z" />
    <glyph glyph-name="i.dot" horiz-adv-x="259" 
d="M72 570v114h115v-114h-115zM74 0v494h111v-494h-111z" />
    <glyph glyph-name="caron.alt" horiz-adv-x="499" 
d="M194 490v200h111l-28 -200h-83z" />
    <glyph glyph-name="revcommaaccent" horiz-adv-x="500" 
d="M404 690l-100 -150h-114l118 150h96z" />
    <glyph glyph-name="circumflexacute" horiz-adv-x="500" 
d="M357 640l65 150h106l-83 -150h-88zM408 540h-93l-65 86l-66 -86h-93l106 150h105z" />
    <glyph glyph-name="circumflexgrave" horiz-adv-x="500" 
d="M285 790h110l93 -150h-92zM408 540h-93l-65 86l-66 -86h-93l106 150h105z" />
    <glyph glyph-name="circumflexhookabove" horiz-adv-x="500" 
d="M500 738q0 -30 -23 -53t-68 -35l-41 -11v60l30 9q13 4 20 11t7 17q0 11 -11 18t-29 7q-22 0 -33.5 -7.5t-12.5 -22.5h-75q1 42 33.5 67t88.5 25q53 0 83.5 -23t30.5 -62zM408 540h-93l-65 86l-66 -86h-93l106 150h105z" />
    <glyph glyph-name="circumflextilde" horiz-adv-x="500" 
d="M192 822q19 0 36.5 -9t41.5 -36q14 -15 20 -19t11 -4q13 0 18.5 13.5t5.5 45.5h69q0 -64 -21.5 -96t-65.5 -32q-19 0 -36.5 9t-41.5 36q-13 15 -19 19t-11 4q-14 0 -19.5 -13.5t-5.5 -45.5h-69q0 64 21.5 96t65.5 32zM408 540h-94l-64 70l-65 -70h-94l106 127h105z" />
    <glyph glyph-name="breveacute" horiz-adv-x="500" 
d="M200 701l100 109h115l-118 -109h-97zM250 540q-67 0 -105.5 38.5t-38.5 108.5h79q0 -38 16 -56.5t49 -18.5t49 18.5t16 56.5h79q0 -70 -38.5 -108.5t-105.5 -38.5z" />
    <glyph glyph-name="brevegrave" horiz-adv-x="500" 
d="M86 810h118l100 -109h-100zM250 540q-67 0 -105.5 38.5t-38.5 108.5h79q0 -38 16 -56.5t49 -18.5t49 18.5t16 56.5h79q0 -70 -38.5 -108.5t-105.5 -38.5z" />
    <glyph glyph-name="brevehookabove" horiz-adv-x="500" 
d="M364 747q0 -30 -22 -50t-69 -33l-41 -11v51l30 9q14 4 20.5 10.5t6.5 16.5q0 12 -10.5 18.5t-29.5 6.5q-21 0 -33 -7.5t-13 -22.5h-75q1 42 33.5 66.5t88.5 24.5q53 0 83.5 -21.5t30.5 -57.5zM250 540q-67 0 -105.5 32.5t-38.5 89.5h74q0 -29 18 -44t52 -15t52 15t18 44
h74q0 -57 -38.5 -89.5t-105.5 -32.5z" />
    <glyph glyph-name="brevetilde" horiz-adv-x="500" 
d="M192 824q20 0 37.5 -9.5t41.5 -36.5q14 -15 20 -19t11 -4q13 0 19 14.5t6 45.5h67q0 -64 -21.5 -96t-65.5 -32q-19 0 -36.5 9t-41.5 35q-13 15 -19.5 19.5t-12.5 4.5q-14 0 -19.5 -13.5t-5.5 -45.5h-67q0 64 21.5 96t65.5 32zM250 540q-67 0 -105.5 33.5t-38.5 93.5h76
q0 -29 17 -43.5t51 -14.5t51 14.5t17 43.5h76q0 -60 -38.5 -93.5t-105.5 -33.5z" />
    <glyph glyph-name="zero.tlf" 
d="M24 320q0 149 72.5 239.5t193.5 90.5t194 -90t73 -240q0 -149 -73 -240t-194 -91t-193.5 90.5t-72.5 240.5zM439 319q0 106 -39.5 166t-109.5 60q-69 0 -109 -60.5t-40 -165.5t39.5 -165t109.5 -60q71 0 110 59t39 166z" />
    <glyph glyph-name="one.tlf" 
d="M361 105h147v-105h-418v105h158v430h-158l31 105h240v-535z" />
    <glyph glyph-name="two.tlf" 
d="M515 0h-452v98l218 183q64 54 87 88t23 74q0 47 -30.5 77t-79.5 30t-80 -31t-34 -82h-112q1 93 65.5 153t166.5 60q99 0 159 -55.5t60 -145.5q0 -62 -34.5 -116t-124.5 -129l-126 -106h294v-98z" />
    <glyph glyph-name="three.tlf" 
d="M415 329q47 -21 73 -61t26 -92q0 -80 -65 -133t-164 -53t-165 54.5t-72 142.5h111q5 -47 38.5 -74t85.5 -27q55 0 88 25.5t33 70.5q0 44 -30.5 71t-80.5 27h-117v91h108q46 0 75.5 25t29.5 65q0 42 -30.5 67.5t-78.5 25.5q-49 0 -80.5 -27t-37.5 -74h-111
q6 88 69.5 142.5t160.5 54.5t157.5 -51t60.5 -133q0 -46 -22 -81.5t-62 -55.5z" />
    <glyph glyph-name="four.tlf" 
d="M461 0h-110v138h-324v96l311 406h123v-406h95v-96h-95v-138zM355 513l-213 -279h213v279z" />
    <glyph glyph-name="five.tlf" 
d="M176 266h-101l38 374h379v-98h-288l-16 -156q27 15 58 23t64 8q97 0 157 -56.5t60 -148.5q0 -98 -63 -160t-163 -62q-98 0 -163 54t-71 140h111q5 -44 38 -71t81 -27q54 0 88 34t34 88t-34.5 87t-90.5 33q-41 0 -72 -16t-46 -46z" />
    <glyph glyph-name="six.tlf" 
d="M136 432l139 208h123l-145 -209q13 3 25.5 4t25.5 1q103 0 167 -60.5t64 -156.5q0 -99 -69.5 -164t-175.5 -65t-173 64t-67 164q0 50 19.5 97.5t66.5 116.5zM156 219q0 -58 37 -93t97 -35t97 35t37 93t-37 92.5t-97 34.5t-97 -34.5t-37 -92.5z" />
    <glyph glyph-name="seven.tlf" 
d="M388 542h-329v98h452v-98l-246 -542h-123z" />
    <glyph glyph-name="eight.tlf" 
d="M63 472q0 77 64 127.5t163 50.5q98 0 162.5 -50.5t64.5 -127.5q0 -46 -22.5 -82.5t-64.5 -58.5q50 -24 77 -63.5t27 -89.5q0 -83 -68.5 -135.5t-175.5 -52.5t-175.5 52.5t-68.5 135.5q0 50 27 89.5t76 63.5q-42 22 -64 58.5t-22 82.5zM290 373q56 0 88 24.5t32 66.5
q0 41 -32.5 65t-87.5 24q-56 0 -88.5 -24.5t-32.5 -65.5q0 -42 32 -66t89 -24zM290 90q61 0 96 27t35 73q0 45 -35.5 72.5t-95.5 27.5q-59 0 -95.5 -27.5t-36.5 -72.5q0 -46 35.5 -73t96.5 -27z" />
    <glyph glyph-name="nine.tlf" 
d="M445 208l-139 -208h-124l144 209q-10 -3 -22 -4.5t-26 -1.5q-103 0 -167.5 61t-64.5 157q0 99 69 164t176 65q106 0 173 -64t67 -164q0 -50 -19.5 -97.5t-66.5 -116.5zM425 421q0 58 -37 93t-97 35t-97 -35t-37 -93t37 -92.5t97 -34.5t97 35t37 92z" />
    <glyph glyph-name="zero.posf" horiz-adv-x="612" 
d="M51 257q0 116 70.5 190.5t183.5 74.5q114 0 185 -74.5t71 -190.5q0 -117 -71 -192.5t-185 -75.5q-113 0 -183.5 75t-70.5 193zM448 256q0 74 -38.5 118.5t-104.5 44.5q-64 0 -103 -45t-39 -118q0 -74 38.5 -119t103.5 -45q66 0 104.5 44.5t38.5 119.5z" />
    <glyph glyph-name="one.posf" horiz-adv-x="344" 
d="M261 512v-512h-113v407h-125l32 105h206z" />
    <glyph glyph-name="two.posf" horiz-adv-x="544" 
d="M495 0h-445v123l252 143q36 20 52.5 40.5t16.5 43.5q0 32 -28 52t-74 20q-51 0 -81.5 -26t-33.5 -71h-112q1 88 64 142.5t167 54.5q97 0 155 -45t58 -120q0 -51 -35 -91.5t-113 -84.5l-144 -83h301v-98z" />
    <glyph glyph-name="three.posf" horiz-adv-x="546" 
d="M398 197q47 -21 72.5 -61t25.5 -93q0 -81 -64 -134.5t-161 -53.5q-98 0 -163 55t-70 142h111q5 -47 37 -74t83 -27q53 0 85 26t32 71t-29.5 72t-77.5 27h-116v92h107q45 0 73 26t28 67q0 43 -29.5 68.5t-75.5 25.5q-48 0 -78.5 -27t-35.5 -74h-111q6 88 68.5 142.5
t157.5 54.5t154.5 -51.5t59.5 -133.5q0 -46 -21.5 -82.5t-61.5 -57.5z" />
    <glyph glyph-name="four.posf" horiz-adv-x="583" 
d="M462 -135h-110v142h-324v96l311 409h123v-409h95v-96h-95v-142zM355 383l-212 -280h212v280z" />
    <glyph glyph-name="five.posf" horiz-adv-x="555" 
d="M162 134h-101l38 378h379v-98h-288l-16 -160q27 15 58 23t64 8q97 0 157 -57t60 -150q0 -98 -63 -160.5t-163 -62.5q-98 0 -163 54t-71 140h111q5 -44 38 -71t81 -27q55 0 88.5 34t33.5 90q0 54 -34.5 87.5t-90.5 33.5q-40 0 -71.5 -16.5t-46.5 -45.5z" />
    <glyph glyph-name="six.posf" horiz-adv-x="558" 
d="M123 432l139 208h124l-145 -209q13 3 25 4t25 1q103 0 167 -60.5t64 -156.5q0 -99 -69 -164t-175 -65t-173.5 64t-67.5 164q0 50 19.5 97.5t66.5 116.5zM143 219q0 -58 37 -93t98 -35q59 0 96 35t37 93t-36.5 92.5t-96.5 34.5t-97.5 -34.5t-37.5 -92.5z" />
    <glyph glyph-name="seven.posf" horiz-adv-x="501" 
d="M349 414h-329v98h452v-98l-246 -549h-123z" />
    <glyph glyph-name="eight.posf" horiz-adv-x="583" 
d="M65 472q0 77 64 127.5t163 50.5q98 0 162 -50.5t64 -127.5q0 -46 -22.5 -82.5t-64.5 -58.5q50 -24 77 -63.5t27 -89.5q0 -83 -68.5 -135.5t-174.5 -52.5q-107 0 -175.5 52.5t-68.5 135.5q0 50 27 89.5t76 63.5q-42 22 -64 58.5t-22 82.5zM292 373q56 0 88 24.5t32 66.5
q0 41 -32.5 65t-87.5 24q-56 0 -88.5 -24.5t-32.5 -65.5q0 -42 32 -66t89 -24zM292 90q60 0 95.5 27t35.5 73q0 45 -35.5 72.5t-95.5 27.5t-96.5 -27.5t-36.5 -72.5t36 -72.5t97 -27.5z" />
    <glyph glyph-name="nine.posf" horiz-adv-x="558" 
d="M435 80l-139 -214h-125l145 215q-11 -3 -23 -4.5t-26 -1.5q-103 0 -167 61t-64 157q0 99 69 164t175 65t173 -64t67 -164q0 -49 -19 -96.5t-66 -117.5zM414 293q0 58 -37 93t-97 35t-97 -35t-37 -93q0 -57 37 -92t97 -35t97 35t37 92z" />
    <glyph glyph-name="zero.numerator" horiz-adv-x="380" 
d="M23 448q0 89 46 143.5t121 54.5t121 -54.5t46 -143.5t-46 -143.5t-121 -54.5t-121 54.5t-46 143.5zM266 447q0 54 -20.5 85.5t-55.5 31.5t-56 -32t-21 -85t20.5 -84.5t56.5 -31.5t56 30.5t20 85.5z" />
    <glyph glyph-name="one.numerator" horiz-adv-x="222" 
d="M180 640v-384h-88v302h-76l25 82h139z" />
    <glyph glyph-name="two.numerator" horiz-adv-x="331" 
d="M303 256h-275v76l131 108q30 25 40 41t10 37q0 22 -14 36.5t-35 14.5t-34.5 -14t-15.5 -37h-86q0 56 40 92t102 36q60 0 96.5 -34t36.5 -89q0 -37 -20 -69.5t-67 -70.5l-62 -51h153v-76z" />
    <glyph glyph-name="three.numerator" horiz-adv-x="324" 
d="M247 453q26 -13 39.5 -36.5t13.5 -53.5q0 -48 -39.5 -80.5t-98.5 -32.5q-60 0 -100 33t-44 85h85q5 -21 20 -32.5t38 -11.5q25 0 39.5 12t14.5 33t-14 34.5t-36 13.5h-72v69h67q20 0 33 11.5t13 29.5q0 21 -13 33t-35 12t-35.5 -11.5t-17.5 -32.5h-85q4 52 42.5 85
t95.5 33q59 0 96 -31.5t37 -82.5q0 -26 -11.5 -46.5t-32.5 -32.5z" />
    <glyph glyph-name="four.numerator" horiz-adv-x="356" 
d="M283 256h-85v75h-182v74l174 235h93v-235h59v-74h-59v-75zM201 537l-98 -132h98v132z" />
    <glyph glyph-name="five.numerator" horiz-adv-x="329" 
d="M108 414h-77l23 226h231v-76h-162l-7 -71q15 6 31 9.5t31 3.5q58 0 94.5 -33.5t36.5 -87.5q0 -59 -39 -97t-100 -38t-101 33t-44 86h86q2 -20 17.5 -32.5t38.5 -12.5q26 0 42.5 16t16.5 42q0 25 -17.5 41t-44.5 16q-18 0 -32.5 -6.5t-23.5 -18.5z" />
    <glyph glyph-name="six.numerator" horiz-adv-x="333" 
d="M60 508l80 132h94l-75 -121q3 1 7 1h11q61 0 100 -36.5t39 -92.5q0 -61 -43 -101t-108 -40t-106 39t-41 101q0 29 9.5 54.5t32.5 63.5zM99 391q0 -28 18 -45t48 -17t48 17t18 45t-18 44.5t-48 16.5t-48 -16.5t-18 -44.5z" />
    <glyph glyph-name="seven.numerator" horiz-adv-x="305" 
d="M192 564h-179v76h275v-76l-138 -308h-96z" />
    <glyph glyph-name="eight.numerator" horiz-adv-x="344" 
d="M33 536q0 48 39.5 79t99.5 31q61 0 100.5 -31t39.5 -79q0 -26 -12.5 -47t-35.5 -35q28 -15 43 -38t15 -51q0 -49 -42.5 -82t-107.5 -33q-64 0 -106.5 32.5t-42.5 82.5q0 29 14.5 51.5t42.5 37.5q-23 14 -35 35t-12 47zM172 486q28 0 43 11.5t15 31.5q0 19 -16 31t-42 12
q-27 0 -43 -12t-16 -32t15.5 -31t43.5 -11zM172 327q28 0 45.5 13.5t17.5 34.5t-17.5 34.5t-45.5 13.5q-27 0 -45.5 -13.5t-18.5 -34.5t18 -34.5t46 -13.5z" />
    <glyph glyph-name="nine.numerator" horiz-adv-x="333" 
d="M273 388l-80 -132h-95l76 121q-3 -1 -6.5 -1h-10.5q-62 0 -101 36.5t-39 92.5q0 61 43 101t108 40t106 -39t41 -101q0 -29 -9.5 -54.5t-32.5 -63.5zM235 505q0 29 -18.5 46t-48.5 17t-48 -17t-18 -46q0 -28 18 -44.5t48 -16.5t48.5 16.5t18.5 44.5z" />
    <glyph glyph-name="zero.denominator" horiz-adv-x="380" 
d="M23 192q0 89 46 143.5t121 54.5t121 -54.5t46 -143.5t-46 -143.5t-121 -54.5t-121 54.5t-46 143.5zM266 191q0 54 -20.5 85.5t-55.5 31.5t-56 -32t-21 -85t20.5 -84.5t56.5 -31.5t56 30.5t20 85.5z" />
    <glyph glyph-name="one.denominator" horiz-adv-x="222" 
d="M180 384v-384h-88v302h-76l25 82h139z" />
    <glyph glyph-name="two.denominator" horiz-adv-x="331" 
d="M303 0h-275v76l131 108q30 25 40 41t10 37q0 22 -14 36.5t-35 14.5t-34.5 -14t-15.5 -37h-86q0 56 40 92t102 36q60 0 96.5 -34t36.5 -89q0 -37 -20 -69.5t-67 -70.5l-62 -51h153v-76z" />
    <glyph glyph-name="three.denominator" horiz-adv-x="324" 
d="M247 197q26 -13 39.5 -36.5t13.5 -53.5q0 -48 -39.5 -80.5t-98.5 -32.5q-60 0 -100 33t-44 85h85q5 -21 20 -32.5t38 -11.5q25 0 39.5 12t14.5 33t-14 34.5t-36 13.5h-72v69h67q20 0 33 11.5t13 29.5q0 21 -13 33t-35 12t-35.5 -11.5t-17.5 -32.5h-85q4 52 42.5 85
t95.5 33q59 0 96 -31.5t37 -82.5q0 -26 -11.5 -46.5t-32.5 -32.5z" />
    <glyph glyph-name="four.denominator" horiz-adv-x="356" 
d="M283 0h-85v75h-182v74l174 235h93v-235h59v-74h-59v-75zM201 281l-98 -132h98v132z" />
    <glyph glyph-name="five.denominator" horiz-adv-x="329" 
d="M108 158h-77l23 226h231v-76h-162l-7 -71q15 6 31 9.5t31 3.5q58 0 94.5 -33.5t36.5 -87.5q0 -59 -39 -97t-100 -38t-101 33t-44 86h86q2 -20 17.5 -32.5t38.5 -12.5q26 0 42.5 16t16.5 42q0 25 -17.5 41t-44.5 16q-18 0 -32.5 -6.5t-23.5 -18.5z" />
    </font>
</defs>
</svg>
