<?xml version="1.0" standalone="no"?>
<!DOCTYPE svg PUBLIC "-//W3C//DTD SVG 1.1//EN" "http://www.w3.org/Graphics/SVG/1.1/DTD/svg11.dtd" >
<svg xmlns="http://www.w3.org/2000/svg" xmlns:xlink="http://www.w3.org/1999/xlink" version="1.1">
<metadata>
Created by FontForge 20170731 at Wed Mar 31 16:21:38 2021
 By Aleksey,,,
Copyright 2021 BlackFoundry
</metadata>
<defs>
<font id="NouvelR-Bold" horiz-adv-x="580" >
  <font-face 
    font-family="NouvelR"
    font-weight="700"
    font-stretch="normal"
    units-per-em="1000"
    panose-1="0 0 0 0 0 0 0 0 0 0"
    ascent="800"
    descent="-200"
    x-height="500"
    cap-height="640"
    bbox="-182 -200 1311 981"
    underline-thickness="60"
    underline-position="-250"
    unicode-range="U+000D-25CA"
  />
<missing-glyph horiz-adv-x="722" 
d="M75 0v640h573v-640h-573zM215 516v-392h293v392h-293z" />
    <glyph glyph-name=".notdef" horiz-adv-x="722" 
d="M75 0v640h573v-640h-573zM215 516v-392h293v392h-293z" />
    <glyph glyph-name=".null" horiz-adv-x="0" 
 />
    <glyph glyph-name="nonmarkingreturn" horiz-adv-x="333" 
 />
    <glyph glyph-name="CR" unicode="&#xd;" horiz-adv-x="0" 
 />
    <glyph glyph-name="space" unicode=" " horiz-adv-x="165" 
 />
    <glyph glyph-name="exclam" unicode="!" horiz-adv-x="272" 
d="M65 388v252h140v-252l-20 -174h-100zM62 0v142h147v-142h-147z" />
    <glyph glyph-name="quotedbl" unicode="&#x22;" horiz-adv-x="501" 
d="M87 350l-25 290h147l-25 -290h-97zM317 350l-25 290h147l-25 -290h-97z" />
    <glyph glyph-name="numbersign" unicode="#" horiz-adv-x="718" 
d="M200 0h-134l32 131h-69v118h97l34 142h-78v118h106l32 131h134l-32 -131h164l32 131h134l-32 -131h69v-118h-97l-34 -142h78v-118h-106l-32 -131h-134l32 131h-164zM294 391l-34 -142h164l34 142h-164z" />
    <glyph glyph-name="dollar" unicode="$" horiz-adv-x="598" 
d="M311 114q47 0 75 17.5t28 48.5q0 29 -23.5 45t-78.5 25l-56 8q-102 17 -157 67.5t-55 126.5q0 77 50 128.5t137 65.5v93h117v-94q90 -14 142.5 -67t52.5 -132h-143q0 38 -29.5 59.5t-80.5 21.5q-47 0 -75 -17.5t-28 -48.5q0 -28 25.5 -43.5t97.5 -26.5l56 -9
q95 -15 144.5 -63t49.5 -125q0 -85 -56.5 -139t-155.5 -63v-91h-117v97q-88 18 -139.5 73t-51.5 130h147q0 -38 35 -62.5t89 -24.5z" />
    <glyph glyph-name="percent" unicode="%" horiz-adv-x="927" 
d="M420 463q0 -82 -54.5 -134t-140.5 -52t-141 52t-55 134t55 134.5t141 52.5t140.5 -52.5t54.5 -134.5zM333 0h-132l394 640h132zM146 463q0 -36 22 -58t57 -22q34 0 56 22.5t22 57.5q0 36 -21.5 58.5t-56.5 22.5t-57 -22.5t-22 -58.5zM898 176q0 -82 -54.5 -134
t-140.5 -52t-141 52t-55 134t55 134.5t141 52.5t140.5 -52.5t54.5 -134.5zM624 176q0 -36 22 -58t57 -22q34 0 56 22.5t22 57.5q0 36 -21.5 58.5t-56.5 22.5t-57 -22.5t-22 -58.5z" />
    <glyph glyph-name="ampersand" unicode="&#x26;" horiz-adv-x="707" 
d="M143 344q-26 30 -39.5 64.5t-13.5 69.5q0 78 55.5 125t145.5 47q99 0 161.5 -60t62.5 -153h-137q-1 41 -22.5 65.5t-57.5 24.5q-29 0 -47.5 -16t-18.5 -41q0 -19 13 -40t40 -46l144 -134v75h224v-120h-176l220 -205h-185l-71 66q-37 -38 -84.5 -57t-104.5 -19
q-101 0 -162 50t-61 133q0 54 30 99t84 72zM167 194q0 -37 25.5 -59.5t68.5 -22.5q26 0 49.5 9t42.5 26l-138 128q-24 -14 -36 -34.5t-12 -46.5z" />
    <glyph glyph-name="quotesingle" unicode="'" horiz-adv-x="271" 
d="M87 350l-25 290h147l-25 -290h-97z" />
    <glyph glyph-name="parenleft" unicode="(" horiz-adv-x="335" 
d="M315 -134h-143q-57 96 -86 199.5t-29 212.5q0 113 29 216.5t86 195.5h143q-57 -91 -86 -195.5t-29 -216.5q0 -108 29.5 -213t85.5 -199z" />
    <glyph glyph-name="parenright" unicode=")" horiz-adv-x="335" 
d="M278 278q0 -109 -29 -212.5t-86 -199.5h-143q56 94 85.5 199t29.5 213q0 112 -29 216.5t-86 195.5h143q57 -92 86 -195.5t29 -216.5z" />
    <glyph glyph-name="asterisk" unicode="*" horiz-adv-x="430" 
d="M216 382l-64 -117l-94 69l91 96l-131 24l36 111l119 -57l-17 132h117l-17 -131l120 57l36 -111l-130 -24l91 -96l-94 -69z" />
    <glyph glyph-name="plus" unicode="+" 
d="M233 224h-168v114h168v168h114v-168h168v-114h-168v-168h-114v168z" />
    <glyph glyph-name="comma" unicode="," horiz-adv-x="272" 
d="M10 -148l52 290h147l-77 -290h-122z" />
    <glyph glyph-name="hyphen" unicode="-" horiz-adv-x="354" 
d="M309 224h-264v114h264v-114z" />
    <glyph glyph-name="period" unicode="." horiz-adv-x="272" 
d="M62 0v142h147v-142h-147z" />
    <glyph glyph-name="slash" unicode="/" horiz-adv-x="370" 
d="M90 -134h-144l304 824h144z" />
    <glyph glyph-name="zero" unicode="0" horiz-adv-x="633" 
d="M41 320q0 149 75.5 239.5t199.5 90.5q125 0 200.5 -90.5t75.5 -239.5q0 -148 -76 -239t-200 -91t-199.5 91t-75.5 239zM448 319q0 94 -35 148t-97 54q-61 0 -96.5 -54.5t-35.5 -147.5t35 -146.5t97 -53.5q63 0 97.5 52.5t34.5 147.5z" />
    <glyph glyph-name="one" unicode="1" horiz-adv-x="365" 
d="M291 640v-640h-138v511h-128l40 129h226z" />
    <glyph glyph-name="two" unicode="2" horiz-adv-x="550" 
d="M502 0h-454v120l217 181q53 44 70.5 72.5t17.5 63.5q0 40 -24.5 65t-62.5 25t-62 -24.5t-27 -65.5h-137q0 93 66 153t169 60q99 0 159.5 -56t60.5 -148q0 -62 -33 -116t-114 -121l-109 -89h263v-120z" />
    <glyph glyph-name="three" unicode="3" horiz-adv-x="541" 
d="M408 329q44 -22 67.5 -60.5t23.5 -90.5q0 -79 -65.5 -133.5t-163.5 -54.5q-99 0 -165.5 55t-72.5 142h135q6 -37 33 -58.5t68 -21.5q44 0 70.5 21.5t26.5 58.5t-24.5 60t-64.5 23h-119v110h110q36 0 59.5 21t23.5 53q0 36 -24 57.5t-63 21.5q-38 0 -62.5 -21t-30.5 -59
h-135q6 87 69.5 142t159.5 55q98 0 159 -52.5t61 -136.5q0 -43 -19.5 -77t-56.5 -55z" />
    <glyph glyph-name="four" unicode="4" horiz-adv-x="591" 
d="M469 0h-134v129h-308v116l295 395h147v-395h98v-116h-98v-129zM340 479l-175 -234h175v234z" />
    <glyph glyph-name="five" unicode="5" horiz-adv-x="550" 
d="M176 264h-123l38 376h385v-120h-274l-13 -127q26 12 53.5 18t54.5 6q97 0 157 -56t60 -147q0 -99 -64 -161.5t-166 -62.5q-101 0 -167.5 54.5t-72.5 142.5h136q4 -36 31.5 -58t67.5 -22q46 0 74.5 28t28.5 74q0 45 -29.5 73t-77.5 28q-32 0 -58 -12t-41 -34z" />
    <glyph glyph-name="six" unicode="6" horiz-adv-x="556" 
d="M105 423l135 217h150l-131 -204q8 2 17 2.5t18 0.5q103 0 167.5 -60.5t64.5 -155.5q0 -101 -71 -167t-179 -66t-176 65t-68 167q0 50 16.5 94t56.5 107zM160 223q0 -50 31.5 -79.5t84.5 -29.5q52 0 83.5 29.5t31.5 79.5q0 49 -31.5 78.5t-83.5 29.5q-53 0 -84.5 -29.5
t-31.5 -78.5z" />
    <glyph glyph-name="seven" unicode="7" horiz-adv-x="506" 
d="M327 520h-306v120h458v-120l-235 -520h-152z" />
    <glyph glyph-name="eight" unicode="8" horiz-adv-x="575" 
d="M57 467q0 80 65.5 131.5t165.5 51.5t165.5 -52t65.5 -131q0 -44 -21 -79t-60 -58q47 -25 72.5 -63.5t25.5 -85.5q0 -83 -70.5 -137t-177.5 -54q-108 0 -178 54t-70 137q0 48 25 86t72 63q-39 23 -59.5 58t-20.5 79zM288 380q48 0 75 20.5t27 56.5q0 34 -27.5 54.5
t-74.5 20.5q-48 0 -75.5 -20.5t-27.5 -55.5t27.5 -55.5t75.5 -20.5zM288 112q50 0 80 23t30 62q0 37 -30.5 60.5t-79.5 23.5q-48 0 -80 -24t-32 -60q0 -38 31 -61.5t81 -23.5z" />
    <glyph glyph-name="nine" unicode="9" horiz-adv-x="556" 
d="M451 217l-135 -217h-151l131 203q-8 -2 -16.5 -2.5t-17.5 -0.5q-103 0 -167.5 61t-64.5 156q0 101 71 167t179 66t176 -65t68 -167q0 -48 -16.5 -92.5t-56.5 -108.5zM396 417q0 50 -31.5 79.5t-84.5 29.5q-52 0 -83.5 -29.5t-31.5 -79.5q0 -49 31.5 -78.5t83.5 -29.5
t84 29.5t32 78.5z" />
    <glyph glyph-name="colon" unicode=":" horiz-adv-x="272" 
d="M62 358v142h147v-142h-147zM62 0v142h147v-142h-147z" />
    <glyph glyph-name="semicolon" unicode=";" horiz-adv-x="272" 
d="M62 358v142h147v-142h-147zM10 -148l52 290h147l-77 -290h-122z" />
    <glyph glyph-name="less" unicode="&#x3c;" 
d="M515 36l-450 190v110l450 189v-124l-305 -118l305 -119v-128z" />
    <glyph glyph-name="equal" unicode="=" 
d="M515 324h-450v114h450v-114zM515 124h-450v114h450v-114z" />
    <glyph glyph-name="greater" unicode="&#x3e;" 
d="M65 525l450 -190v-110l-450 -189v124l305 118l-305 119v128z" />
    <glyph glyph-name="question" unicode="?" horiz-adv-x="496" 
d="M486 444q0 -82 -47 -135.5t-149 -84.5l-121 -37v125l85 29q50 17 70 40t20 59q0 42 -24.5 64.5t-69.5 22.5t-72 -23.5t-30 -66.5h-137q0 94 66.5 153.5t174.5 59.5q105 0 169.5 -56.5t64.5 -149.5zM169 0v142h147v-142h-147z" />
    <glyph glyph-name="at" unicode="@" horiz-adv-x="955" 
d="M915 294q0 -126 -64.5 -205t-172.5 -79h-47l-26 51q-30 -30 -69 -45.5t-84 -15.5q-104 0 -175.5 74t-71.5 186t71.5 186t175.5 74q45 0 84 -15.5t69 -45.5l26 51h97v-413q43 10 71.5 64.5t28.5 132.5q0 140 -94.5 229t-243.5 89q-158 0 -259 -98.5t-101 -253.5
t100.5 -249t276.5 -94h225v-86h-225q-215 0 -339.5 118.5t-124.5 310.5q0 193 125.5 315.5t321.5 122.5q186 0 305.5 -113.5t119.5 -290.5zM472 122q57 0 93 38t36 100t-36 100.5t-93 38.5t-93 -38.5t-36 -100.5t36 -100t93 -38z" />
    <glyph glyph-name="A" unicode="A" horiz-adv-x="721" 
d="M288 640h145l272 -640h-152l-56 136h-279l-56 -136h-146zM358 476l-89 -215h177z" />
    <glyph glyph-name="B" unicode="B" horiz-adv-x="634" 
d="M75 0v640h273q105 0 165.5 -46t60.5 -126q0 -47 -20 -81.5t-60 -55.5q50 -21 75 -59.5t25 -92.5q0 -85 -59.5 -132t-167.5 -47h-292zM432 452q0 34 -24.5 53t-68.5 19h-124v-144h124q44 0 68.5 19t24.5 53zM452 193q0 37 -25.5 57.5t-71.5 20.5h-140v-155h140
q46 0 71.5 20t25.5 57z" />
    <glyph glyph-name="C" unicode="C" horiz-adv-x="726" 
d="M548 264h146q-18 -122 -108.5 -198t-217.5 -76q-142 0 -236.5 94t-94.5 236q0 141 94.5 235.5t236.5 94.5q126 0 216.5 -76t109.5 -198h-146q-17 69 -64.5 107.5t-115.5 38.5q-84 0 -136 -55.5t-52 -146.5t52 -146t136 -55q69 0 116.5 38t63.5 107z" />
    <glyph glyph-name="D" unicode="D" horiz-adv-x="717" 
d="M75 0v640h273q144 0 238.5 -91t94.5 -229t-94.5 -229t-238.5 -91h-273zM538 320q0 86 -52.5 138.5t-137.5 52.5h-133v-382h133q85 0 137.5 52.5t52.5 138.5z" />
    <glyph glyph-name="E" unicode="E" horiz-adv-x="583" 
d="M75 0v640h461v-127h-321v-129h291v-122h-291v-135h321v-127h-461z" />
    <glyph glyph-name="F" unicode="F" horiz-adv-x="564" 
d="M75 0v640h458v-129h-318v-160h288v-123h-288v-228h-140z" />
    <glyph glyph-name="G" unicode="G" horiz-adv-x="737" 
d="M337 358h360q1 -13 2 -27.5t1 -28.5q0 -140 -90.5 -226t-235.5 -86t-241 94t-96 236t95.5 236t238.5 94q124 0 210.5 -64t103.5 -164h-146q-14 43 -59.5 71.5t-107.5 28.5q-86 0 -139 -55.5t-53 -146.5q0 -92 54 -148t142 -56q75 0 121 32t56 92h-216v118z" />
    <glyph glyph-name="H" unicode="H" horiz-adv-x="723" 
d="M75 0v640h140v-251h293v251h140v-640h-140v265h-293v-265h-140z" />
    <glyph glyph-name="I" unicode="I" horiz-adv-x="290" 
d="M75 0v640h140v-640h-140z" />
    <glyph glyph-name="J" unicode="J" horiz-adv-x="407" 
d="M201 214v426h140v-438q0 -98 -54.5 -150t-158.5 -52h-105v126h78q55 0 77.5 19.5t22.5 68.5z" />
    <glyph glyph-name="K" unicode="K" horiz-adv-x="677" 
d="M75 0v640h140v-252h64l213 252h162v-4l-256 -299l263 -332v-5h-173l-204 265h-69v-265h-140z" />
    <glyph glyph-name="L" unicode="L" horiz-adv-x="544" 
d="M75 0v640h140v-511h306v-129h-446z" />
    <glyph glyph-name="M" unicode="M" horiz-adv-x="847" 
d="M489 53h-137l-132 367l-38 -420h-135l57 640h178l144 -413l143 413h173l58 -640h-142l-39 432z" />
    <glyph glyph-name="N" unicode="N" horiz-adv-x="741" 
d="M75 0v640h135l321 -416v416h135v-640h-135l-321 415v-415h-135z" />
    <glyph glyph-name="O" unicode="O" horiz-adv-x="744" 
d="M372 650q144 0 239.5 -94t95.5 -236q0 -143 -95 -236.5t-240 -93.5t-240 93.5t-95 236.5q0 142 95.5 236t239.5 94zM372 119q86 0 138.5 55t52.5 146t-53 146.5t-138 55.5q-86 0 -139 -55.5t-53 -146.5q0 -90 53 -145.5t139 -55.5z" />
    <glyph glyph-name="P" unicode="P" horiz-adv-x="633" 
d="M75 0v640h268q122 0 190 -58t68 -162q0 -105 -67.5 -162.5t-190.5 -57.5h-128v-200h-140zM459 420q0 47 -28.5 71.5t-83.5 24.5h-132v-192h132q55 0 83.5 24.5t28.5 71.5z" />
    <glyph glyph-name="Q" unicode="Q" horiz-adv-x="744" 
d="M372 650q144 0 239.5 -94t95.5 -236q0 -123 -73.5 -212.5t-192.5 -111.5v-96h-140v97q-118 22 -191 111t-73 212q0 142 95.5 236t239.5 94zM301 124v119h140v-119q57 20 89.5 72t32.5 124q0 91 -53 146.5t-138 55.5q-86 0 -139 -55.5t-53 -146.5q0 -71 32 -123t89 -73z
" />
    <glyph glyph-name="R" unicode="R" horiz-adv-x="643" 
d="M614 0h-161l-111 209h-127v-209h-140v640h272q116 0 181.5 -57t65.5 -159q0 -66 -30 -115t-86 -75zM452 422q0 45 -26.5 69.5t-74.5 24.5h-136v-187h136q48 0 74.5 24.5t26.5 68.5z" />
    <glyph glyph-name="S" unicode="S" horiz-adv-x="598" 
d="M311 114q47 0 75 17.5t28 48.5q0 29 -23.5 45t-78.5 25l-56 8q-102 17 -157 67.5t-55 126.5q0 90 67 144t178 54q113 0 183.5 -56t70.5 -148h-143q0 38 -29.5 59.5t-80.5 21.5q-47 0 -75 -17.5t-28 -48.5q0 -28 25.5 -43.5t97.5 -26.5l56 -9q95 -15 144.5 -63t49.5 -125
q0 -94 -67.5 -149t-183.5 -55q-119 0 -194 59.5t-75 151.5h147q0 -38 35 -62.5t89 -24.5z" />
    <glyph glyph-name="T" unicode="T" horiz-adv-x="625" 
d="M243 511h-221v129h581v-129h-220v-511h-140v511z" />
    <glyph glyph-name="U" unicode="U" horiz-adv-x="702" 
d="M351 -10q-140 0 -215 73t-75 209v368h140v-362q0 -79 37.5 -119t112.5 -40q74 0 112 40t38 119v362h140v-368q0 -136 -75 -209t-215 -73z" />
    <glyph glyph-name="V" unicode="V" horiz-adv-x="716" 
d="M432 0h-148l-272 640h154l194 -471l194 471h150z" />
    <glyph glyph-name="W" unicode="W" horiz-adv-x="968" 
d="M16 640h149l128 -449l132 324l-47 125h151l156 -433l124 433h143l-193 -640h-139l-130 343l-141 -343h-139z" />
    <glyph glyph-name="X" unicode="X" horiz-adv-x="669" 
d="M174 0h-158l230 331l-219 309h173l141 -199l134 199h158l-213 -310l234 -330h-173l-156 219z" />
    <glyph glyph-name="Y" unicode="Y" horiz-adv-x="646" 
d="M486 640h153l-247 -400v-240h-140v242l-245 398h161l159 -266z" />
    <glyph glyph-name="Z" unicode="Z" horiz-adv-x="591" 
d="M365 512h-315v128h494v-128l-328 -383h337v-129h-516v129z" />
    <glyph glyph-name="bracketleft" unicode="[" horiz-adv-x="370" 
d="M350 -134h-255v824h255v-124h-115v-576h115v-124z" />
    <glyph glyph-name="backslash" unicode="\" horiz-adv-x="370" 
d="M120 690l304 -824h-144l-304 824h144z" />
    <glyph glyph-name="bracketright" unicode="]" horiz-adv-x="370" 
d="M275 690v-824h-255v124h115v576h-115v124h255z" />
    <glyph glyph-name="asciicircum" unicode="^" 
d="M235 640h110l190 -450h-128l-119 305l-118 -305h-124z" />
    <glyph glyph-name="underscore" unicode="_" horiz-adv-x="500" 
d="M455 -136h-410v94h410v-94z" />
    <glyph glyph-name="grave" unicode="`" horiz-adv-x="500" 
d="M68 690h140l100 -150h-116z" />
    <glyph glyph-name="a" unicode="a" horiz-adv-x="623" 
d="M556 500v-500h-97l-26 51q-30 -30 -69 -45.5t-84 -15.5q-104 0 -175.5 74t-71.5 186t71.5 186t175.5 74q45 0 84 -15.5t69 -45.5l26 51h97zM300 112q57 0 93 38t36 100t-36 100.5t-93 38.5t-93 -38.5t-36 -100.5t36 -100t93 -38z" />
    <glyph glyph-name="b" unicode="b" horiz-adv-x="623" 
d="M164 0h-97v690h137v-231q27 25 62 38t76 13q105 0 176.5 -74t71.5 -186t-71.5 -186t-176.5 -74q-45 0 -84 15.5t-69 45.5zM323 389q-57 0 -93 -38.5t-36 -100.5t36 -100t93 -38t93 38t36 100t-36 100.5t-93 38.5z" />
    <glyph glyph-name="c" unicode="c" horiz-adv-x="583" 
d="M412 210h140q-13 -100 -83.5 -160t-174.5 -60q-114 0 -187.5 72.5t-73.5 187.5t73.5 187.5t187.5 72.5q104 0 174.5 -60t83.5 -160h-140q-11 46 -42.5 72.5t-75.5 26.5q-54 0 -88.5 -38.5t-34.5 -100.5t34 -100t89 -38q44 0 75.5 26t42.5 72z" />
    <glyph glyph-name="d" unicode="d" horiz-adv-x="623" 
d="M556 690v-690h-97l-26 51q-30 -30 -69 -45.5t-84 -15.5q-104 0 -175.5 74t-71.5 186t71.5 186t175.5 74q41 0 76.5 -13t62.5 -38v231h137zM300 112q57 0 93 38t36 100t-36 100.5t-93 38.5t-93 -38.5t-36 -100.5t36 -100t93 -38z" />
    <glyph glyph-name="e" unicode="e" horiz-adv-x="575" 
d="M400 168h136q-13 -80 -78.5 -129t-160.5 -49q-116 0 -189.5 72.5t-73.5 187.5q0 116 71.5 188t185.5 72q112 0 180.5 -71t68.5 -187q0 -7 -0.5 -16.5t-1.5 -23.5h-369q8 -52 41.5 -79.5t86.5 -27.5q40 0 67 16.5t36 46.5zM287 398q-47 0 -76 -23.5t-40 -70.5h234
q-7 44 -39 69t-79 25z" />
    <glyph glyph-name="f" unicode="f" horiz-adv-x="392" 
d="M89 369h-70v114h70v23q0 92 48 138t144 46h122l-29 -110h-68q-41 0 -60.5 -17t-19.5 -53v-27h147v-114h-147v-369h-137v369z" />
    <glyph glyph-name="g" unicode="g" horiz-adv-x="631" 
d="M444 450l28 50h92v-510q0 -97 -43.5 -138.5t-148.5 -41.5h-261l30 125h231q29 0 42 13t13 42v66q-29 -23 -65 -34.5t-77 -11.5q-106 0 -179.5 71t-73.5 179t73.5 179t179.5 71q46 0 86.5 -15.5t72.5 -44.5zM304 132q59 0 96 35.5t37 92.5q0 58 -37 93.5t-96 35.5
t-96.5 -35.5t-37.5 -93.5q0 -57 37.5 -92.5t96.5 -35.5z" />
    <glyph glyph-name="h" unicode="h" horiz-adv-x="606" 
d="M309 389q-49 0 -77 -29t-28 -80v-280h-137v690h137v-227q26 23 60.5 35t73.5 12q94 0 153 -57.5t59 -151.5v-301h-137v280q0 50 -28.5 79.5t-75.5 29.5z" />
    <glyph glyph-name="i" unicode="i" horiz-adv-x="271" 
d="M67 558v132h137v-132h-137zM67 0v500h137v-500h-137z" />
    <glyph glyph-name="j" unicode="j" horiz-adv-x="271" 
d="M67 558v132h137v-132h-137zM67 -15v515h137v-517q0 -89 -44.5 -131t-141.5 -42h-73v122h48q38 0 56 13t18 40z" />
    <glyph glyph-name="k" unicode="k" horiz-adv-x="581" 
d="M67 0v690h137v-379h64l142 189h150v-5l-179 -237l190 -253v-5h-161l-145 195h-61v-195h-137z" />
    <glyph glyph-name="l" unicode="l" horiz-adv-x="271" 
d="M67 0v690h137v-690h-137z" />
    <glyph glyph-name="m" unicode="m" horiz-adv-x="913" 
d="M299 389q-44 0 -69.5 -26.5t-25.5 -73.5v-289h-137v500h97l24 -48q25 28 61 43t79 15q52 0 94 -19t69 -55q25 35 67.5 54.5t94.5 19.5q91 0 147 -54.5t56 -145.5v-310h-137v289q0 46 -25.5 73t-68.5 27q-44 0 -69.5 -26.5t-25.5 -73.5v-289h-137v289q0 46 -25.5 73
t-68.5 27z" />
    <glyph glyph-name="n" unicode="n" horiz-adv-x="606" 
d="M309 389q-49 0 -77 -29t-28 -80v-280h-137v500h97l26 -51q26 29 64 45t84 16q94 0 153 -57.5t59 -151.5v-301h-137v280q0 50 -28.5 79.5t-75.5 29.5z" />
    <glyph glyph-name="o" unicode="o" horiz-adv-x="603" 
d="M301 510q118 0 193.5 -72.5t75.5 -187.5t-75.5 -187.5t-193.5 -72.5t-193 72.5t-75 187.5t75 187.5t193 72.5zM301 112q58 0 94.5 38t36.5 100t-36.5 100.5t-94.5 38.5t-94 -38.5t-36 -100.5t36 -100t94 -38z" />
    <glyph glyph-name="p" unicode="p" horiz-adv-x="623" 
d="M67 -190v690h97l25 -51q30 30 69 45.5t84 15.5q105 0 176.5 -74t71.5 -186t-71.5 -186t-176.5 -74q-40 0 -75.5 13t-62.5 38v-231h-137zM323 389q-57 0 -93 -38.5t-36 -100.5t36 -100t93 -38t93 38t36 100t-36 100.5t-93 38.5z" />
    <glyph glyph-name="q" unicode="q" horiz-adv-x="623" 
d="M459 500h97v-690h-137v231q-27 -25 -63 -38t-76 -13q-104 0 -175.5 74t-71.5 186t71.5 186t175.5 74q45 0 84 -15.5t69 -45.5zM300 112q57 0 93 38t36 100t-36 100.5t-93 38.5t-93 -38.5t-36 -100.5t36 -100t93 -38z" />
    <glyph glyph-name="r" unicode="r" horiz-adv-x="407" 
d="M67 0v500h332l-40 -124h-155v-376h-137z" />
    <glyph glyph-name="s" unicode="s" horiz-adv-x="509" 
d="M265 96q36 0 55 11.5t19 33.5q0 20 -18 30.5t-61 16.5l-49 7q-84 13 -126.5 51.5t-42.5 102.5q0 74 55 117.5t148 43.5q96 0 157 -45.5t61 -116.5h-128q0 26 -24 41.5t-66 15.5q-34 0 -52 -11.5t-18 -32.5q0 -20 18.5 -31t59.5 -18l49 -7q88 -13 130 -49t42 -98
q0 -76 -57.5 -122t-151.5 -46q-100 0 -165 50t-65 126h132q0 -31 27 -50.5t71 -19.5z" />
    <glyph glyph-name="t" unicode="t" horiz-adv-x="414" 
d="M301 126h83v-126h-87q-107 0 -155.5 44t-48.5 142v200h-84v20l201 206h20v-112h144v-114h-144v-189q0 -37 17 -54t54 -17z" />
    <glyph glyph-name="u" unicode="u" 
d="M290 -10q-108 0 -172 57t-64 155v298h137v-283q0 -50 26 -77.5t73 -27.5t73 27.5t26 77.5v283h137v-298q0 -95 -65 -153.5t-171 -58.5z" />
    <glyph glyph-name="v" unicode="v" horiz-adv-x="562" 
d="M356 0h-150l-200 500h142l135 -347l135 347h137z" />
    <glyph glyph-name="w" unicode="w" horiz-adv-x="827" 
d="M662 0h-140l-102 267l-108 -267h-130l-173 500h138l112 -336l104 253l-32 83h138l124 -336l98 336h125z" />
    <glyph glyph-name="x" unicode="x" horiz-adv-x="573" 
d="M161 0h-153l198 258l-183 242h163l108 -143l107 143h153l-185 -242l195 -258h-163l-121 160z" />
    <glyph glyph-name="y" unicode="y" horiz-adv-x="564" 
d="M239 -4l1 4h-42l-191 500h142l137 -372l133 372h137l-197 -540q-28 -81 -74.5 -115.5t-135.5 -34.5h-79v121h71q45 0 65 13.5t33 51.5z" />
    <glyph glyph-name="z" unicode="z" horiz-adv-x="504" 
d="M296 386h-253v114h415v-114l-260 -271h273v-115h-436v115z" />
    <glyph glyph-name="braceleft" unicode="{" horiz-adv-x="399" 
d="M25 216v124h34q45 0 63.5 17t14.5 53l-10 78q-13 105 36 153.5t166 48.5h53v-124h-43q-41 0 -59 -21t-13 -65l10 -77q8 -47 -8 -78t-55 -47q39 -16 55 -47t8 -78l-10 -77q-5 -44 13 -65t59 -21h43v-124h-53q-117 0 -166 48.5t-36 153.5l10 78q4 36 -14.5 53t-63.5 17h-34
z" />
    <glyph glyph-name="bar" unicode="|" horiz-adv-x="330" 
d="M235 -134h-140v824h140v-824z" />
    <glyph glyph-name="braceright" unicode="}" horiz-adv-x="399" 
d="M374 340v-124h-34q-45 0 -63.5 -17t-14.5 -53l10 -78q13 -105 -36 -153.5t-166 -48.5h-53v124h43q41 0 59 21t13 65l-10 77q-8 47 8 78t55 47q-39 16 -55 47t-8 78l10 77q5 44 -13 65t-59 21h-43v124h53q117 0 166 -48.5t36 -153.5l-10 -78q-4 -36 14.5 -53t63.5 -17h34z
" />
    <glyph glyph-name="asciitilde" unicode="~" 
d="M151 193h-99q0 90 35.5 138.5t97.5 48.5q30 0 60.5 -11.5t79.5 -45.5q29 -20 41.5 -26t22.5 -6q19 0 29.5 20.5t10.5 58.5h99q0 -90 -35.5 -138.5t-97.5 -48.5q-30 0 -60.5 11.5t-79.5 45.5q-29 20 -41.5 26t-22.5 6q-19 0 -29.5 -20.5t-10.5 -58.5z" />
    <glyph glyph-name="uni00A0" unicode="&#xa0;" horiz-adv-x="165" 
 />
    <glyph glyph-name="exclamdown" unicode="&#xa1;" horiz-adv-x="272" 
d="M210 500v-142h-147v142h147zM207 112v-252h-140v252l20 174h100z" />
    <glyph glyph-name="cent" unicode="&#xa2;" horiz-adv-x="585" 
d="M413 210h140q-11 -86 -65.5 -143.5t-138.5 -71.5v-94h-117v96q-90 19 -144 87.5t-54 165.5t54 165.5t144 87.5v96h117v-94q84 -14 138.5 -71.5t65.5 -143.5h-140q-11 46 -42.5 72.5t-75.5 26.5q-54 0 -88.5 -38.5t-34.5 -100.5t34 -100t89 -38q44 0 75.5 26t42.5 72z" />
    <glyph glyph-name="sterling" unicode="&#xa3;" horiz-adv-x="600" 
d="M565 0h-524v120h64v111h-64v114h64v101q0 92 59.5 148t158.5 56q103 0 169 -60t66 -153h-137q-3 41 -27 65.5t-62 24.5t-62.5 -25t-24.5 -65v-92h224v-114h-224v-111h320v-120z" />
    <glyph glyph-name="currency" unicode="&#xa4;" horiz-adv-x="614" 
d="M98 -10l-74 80l79 79q-11 24 -16.5 49.5t-5.5 52.5t5.5 52.5t16.5 49.5l-79 79l74 80l77 -77q27 18 60.5 27.5t71.5 9.5t71.5 -9.5t60.5 -27.5l77 77l74 -80l-79 -79q11 -24 16.5 -49.5t5.5 -52.5t-5.5 -52.5t-16.5 -49.5l79 -79l-74 -80l-77 77q-27 -18 -60.5 -27.5
t-71.5 -9.5t-71.5 9.5t-60.5 27.5zM307 141q46 0 75 30.5t29 79.5t-29 79.5t-75 30.5t-75 -30.5t-29 -79.5t29 -79.5t75 -30.5z" />
    <glyph glyph-name="yen" unicode="&#xa5;" horiz-adv-x="651" 
d="M255 148h-179v94h179l-32 51h-147v94h90l-156 253h161l159 -266l159 266h153l-156 -253h88v-94h-146l-32 -51h178v-94h-179v-148h-140v148z" />
    <glyph glyph-name="brokenbar" unicode="&#xa6;" horiz-adv-x="330" 
d="M235 690v-349h-140v349h140zM235 -134h-140v349h140v-349z" />
    <glyph glyph-name="section" unicode="&#xa7;" horiz-adv-x="577" 
d="M450 159q39 -20 58.5 -51t19.5 -74q0 -80 -63 -129t-166 -49h-213v106h213q46 0 70 16t24 47q0 30 -23.5 46t-75.5 23l-49 7q-93 12 -141 56.5t-48 117.5q0 40 19.5 71.5t56.5 52.5q-38 21 -57 54t-19 76q0 78 60.5 124.5t162.5 46.5h198v-105h-198q-43 0 -66.5 -16
t-23.5 -46q0 -31 23.5 -47.5t74.5 -23.5l49 -7q96 -13 144 -54.5t48 -112.5q0 -40 -20 -73.5t-58 -55.5zM181 280q0 -35 30 -54.5t84 -19.5q46 0 72 18.5t26 52.5q0 35 -30 54.5t-84 19.5q-46 0 -72 -18.5t-26 -52.5z" />
    <glyph glyph-name="dieresis" unicode="&#xa8;" horiz-adv-x="500" 
d="M99 568v122h122v-122h-122zM279 568v122h122v-122h-122z" />
    <glyph glyph-name="copyright" unicode="&#xa9;" horiz-adv-x="851" 
d="M811 319q0 -167 -108 -272.5t-277 -105.5q-170 0 -278 106t-108 272q0 167 108.5 273t277.5 106t277 -106t108 -273zM77 319q0 -151 97.5 -246.5t251.5 -95.5t251 95t97 247t-97 247.5t-251 95.5q-153 0 -251 -96t-98 -247zM545 275h140q-13 -100 -83.5 -160t-174.5 -60
q-114 0 -187.5 72.5t-73.5 187.5t73.5 187.5t187.5 72.5q104 0 174.5 -60t83.5 -160h-140q-11 46 -42.5 72.5t-75.5 26.5q-54 0 -88.5 -38.5t-34.5 -100.5t34 -100t89 -38q44 0 75.5 26t42.5 72z" />
    <glyph glyph-name="ordfeminine" unicode="&#xaa;" horiz-adv-x="483" 
d="M433 641v-385h-85l-18 37q-21 -22 -49 -33.5t-60 -11.5q-81 0 -136 57t-55 144q0 86 55.5 143t135.5 57q32 0 60 -11.5t49 -33.5l18 37h85zM236 352q39 0 64 27t25 70t-25 70t-64 27t-64 -27t-25 -70q0 -44 24.5 -70.5t64.5 -26.5z" />
    <glyph glyph-name="guillemotleft" unicode="&#xab;" horiz-adv-x="578" 
d="M154 0l-134 250l134 250h140l-134 -250l134 -250h-140zM414 0l-134 250l134 250h140l-134 -250l134 -250h-140z" />
    <glyph glyph-name="logicalnot" unicode="&#xac;" 
d="M401 224h-336v114h450v-282h-114v168z" />
    <glyph glyph-name="uni00AD" unicode="&#xad;" horiz-adv-x="0" 
 />
    <glyph glyph-name="registered" unicode="&#xae;" horiz-adv-x="543" 
d="M510 455q0 -105 -66.5 -171.5t-171.5 -66.5t-172 66.5t-67 171.5t67 172t172 67t171.5 -67t66.5 -172zM70 455q0 -89 56.5 -145.5t145.5 -56.5t145 56t56 146t-56 146.5t-145 56.5t-145.5 -56.5t-56.5 -146.5zM410 316h-95l-42 80h-37v-80h-86v280h134q56 0 87 -26.5
t31 -73.5q0 -29 -12.5 -50.5t-35.5 -33.5zM316 493q0 12 -8 19t-22 7h-50v-50h50q15 0 22.5 6t7.5 18z" />
    <glyph glyph-name="macron" unicode="&#xaf;" horiz-adv-x="500" 
d="M113 658h274v-94h-274v94z" />
    <glyph glyph-name="degree" unicode="&#xb0;" horiz-adv-x="525" 
d="M468 449q0 -88 -57.5 -144t-147.5 -56t-148 56t-58 144t58 144.5t148 56.5t147.5 -56.5t57.5 -144.5zM174 449q0 -42 25 -68t64 -26t63.5 26t24.5 68t-24.5 68.5t-63.5 26.5t-64 -26.5t-25 -68.5z" />
    <glyph glyph-name="plusminus" unicode="&#xb1;" 
d="M515 0h-450v114h168v139h-168v114h168v139h114v-139h168v-114h-168v-139h168v-114z" />
    <glyph glyph-name="twosuperior" unicode="&#xb2;" horiz-adv-x="334" 
d="M308 375h-280v89l132 107q24 19 31.5 31.5t7.5 30.5q0 17 -10.5 29t-26.5 12q-15 0 -25 -10.5t-12 -26.5h-101q-1 55 40.5 91.5t104.5 36.5q61 0 98.5 -34.5t37.5 -90.5q0 -37 -19.5 -69t-62.5 -66l-52 -41h137v-89z" />
    <glyph glyph-name="threesuperior" unicode="&#xb3;" horiz-adv-x="321" 
d="M252 572q24 -13 37 -36t13 -53q0 -48 -40.5 -81t-100.5 -33q-61 0 -101.5 33t-44.5 85h99q5 -15 17 -23.5t29 -8.5q20 0 31.5 9.5t11.5 26.5t-11 28t-29 11h-73v80h68q16 0 26 9t10 23q0 17 -10.5 27t-27.5 10q-15 0 -25 -8t-15 -24h-99q3 52 42.5 85t96.5 33
q61 0 99 -32.5t38 -84.5q0 -24 -10.5 -44t-30.5 -32z" />
    <glyph glyph-name="acute" unicode="&#xb4;" horiz-adv-x="500" 
d="M192 540l100 150h140l-124 -150h-116z" />
    <glyph glyph-name="mu.math" unicode="&#xb5;" horiz-adv-x="620" 
d="M201 27v-217h-137v690h137v-283q0 -50 26 -77.5t73 -27.5t73 27.5t26 77.5v283h138v-345q0 -22 10.5 -32.5t31.5 -10.5h10v-122h-10q-56 0 -93.5 15t-58.5 46q-21 -29 -54 -45t-73 -16q-31 0 -55.5 9t-43.5 28z" />
    <glyph glyph-name="paragraph" unicode="&#xb6;" horiz-adv-x="651" 
d="M630 640v-114h-72v-460q-1 -97 -55.5 -148.5t-157.5 -51.5h-105v126h78q55 0 77.5 19.5t22.5 68.5v446h-50v-480h-100v155q-112 5 -174 62t-62 157q0 104 68 162t190 58h340z" />
    <glyph glyph-name="periodcentered" unicode="&#xb7;" horiz-adv-x="177" 
d="M20 278v132h137v-132h-137z" />
    <glyph glyph-name="cedilla" unicode="&#xb8;" horiz-adv-x="500" 
d="M213 -27l81 -12q50 -7 73 -26t23 -52q0 -36 -37.5 -59.5t-97.5 -23.5q-64 0 -103.5 25.5t-41.5 67.5h104q1 -16 11.5 -25t27.5 -9q15 0 23.5 6.5t8.5 17.5q0 12 -9 19.5t-29 10.5l-34 6v54z" />
    <glyph glyph-name="onesuperior" unicode="&#xb9;" horiz-adv-x="235" 
d="M198 759v-384h-103v288h-78l30 96h151z" />
    <glyph glyph-name="ordmasculine" unicode="&#xba;" horiz-adv-x="474" 
d="M237 649q90 0 148.5 -56t58.5 -144q0 -89 -58 -145t-149 -56t-149 56t-58 145q0 88 58 144t149 56zM237 352q40 0 65.5 26.5t25.5 70.5q0 43 -25.5 70t-65.5 27t-65 -27t-25 -70q0 -44 25 -70.5t65 -26.5z" />
    <glyph glyph-name="guillemotright" unicode="&#xbb;" horiz-adv-x="578" 
d="M424 500l134 -250l-134 -250h-140l134 250l-134 250h140zM164 500l134 -250l-134 -250h-140l134 250l-134 250h140z" />
    <glyph glyph-name="onequarter" unicode="&#xbc;" horiz-adv-x="760" 
d="M198 640v-384h-103v288h-78l30 96h151zM246 0h-122l304 640h122zM686 0h-99v70h-172v86l164 228h107v-228h61v-86h-61v-70zM591 261l-76 -105h76v105z" />
    <glyph glyph-name="onehalf" unicode="&#xbd;" horiz-adv-x="773" 
d="M198 640v-384h-103v288h-78l30 96h151zM246 0h-122l304 640h122zM747 0h-280v89l132 107q24 19 31.5 31.5t7.5 30.5q0 17 -10.5 29t-26.5 12q-15 0 -25 -10.5t-12 -26.5h-101q-1 55 40.5 91.5t104.5 36.5q61 0 98.5 -34.5t37.5 -90.5q0 -37 -19.5 -69t-62.5 -66l-52 -41
h137v-89z" />
    <glyph glyph-name="threequarters" unicode="&#xbe;" horiz-adv-x="846" 
d="M252 453q24 -13 37 -36t13 -53q0 -48 -40.5 -81t-100.5 -33q-61 0 -101.5 33t-44.5 85h99q5 -15 17 -23.5t29 -8.5q20 0 31.5 9.5t11.5 26.5t-11 28t-29 11h-73v80h68q16 0 26 9t10 23q0 17 -10.5 27t-27.5 10q-15 0 -25 -8t-15 -24h-99q3 52 42.5 85t96.5 33
q61 0 99 -32.5t38 -84.5q0 -24 -10.5 -44t-30.5 -32zM332 0h-122l304 640h122zM772 0h-99v70h-172v86l164 228h107v-228h61v-86h-61v-70zM677 261l-76 -105h76v105z" />
    <glyph glyph-name="questiondown" unicode="&#xbf;" horiz-adv-x="496" 
d="M328 500v-142h-147v142h147zM11 56q0 82 47 135.5t149 84.5l121 37v-125l-85 -29q-50 -17 -70 -40t-20 -59q0 -42 24.5 -64.5t69.5 -22.5t72 23.5t30 66.5h137q0 -94 -66.5 -153.5t-174.5 -59.5q-105 0 -169.5 56.5t-64.5 149.5z" />
    <glyph glyph-name="Agrave" unicode="&#xc0;" horiz-adv-x="721" 
d="M288 640h145l272 -640h-152l-56 136h-279l-56 -136h-146zM358 476l-89 -215h177zM179 840h140l100 -150h-116z" />
    <glyph glyph-name="Aacute" unicode="&#xc1;" horiz-adv-x="721" 
d="M288 640h145l272 -640h-152l-56 136h-279l-56 -136h-146zM358 476l-89 -215h177zM303 690l100 150h140l-124 -150h-116z" />
    <glyph glyph-name="Acircumflex" unicode="&#xc2;" horiz-adv-x="721" 
d="M288 640h145l272 -640h-152l-56 136h-279l-56 -136h-146zM358 476l-89 -215h177zM528 690h-111l-56 74l-57 -74h-111l104 150h127z" />
    <glyph glyph-name="Atilde" unicode="&#xc3;" horiz-adv-x="721" 
d="M288 640h145l272 -640h-152l-56 136h-279l-56 -136h-146zM358 476l-89 -215h177zM295 841q23 0 43.5 -9t49.5 -35q14 -12 19.5 -15.5t10.5 -3.5q9 0 12.5 12t3.5 40h84q0 -67 -23 -101t-69 -34q-22 0 -42.5 9t-48.5 34q-14 13 -20 16.5t-11 3.5q-9 0 -13 -12t-4 -40h-84
q0 67 23 101t69 34z" />
    <glyph glyph-name="Adieresis" unicode="&#xc4;" horiz-adv-x="721" 
d="M288 640h145l272 -640h-152l-56 136h-279l-56 -136h-146zM358 476l-89 -215h177zM210 718v122h122v-122h-122zM390 718v122h122v-122h-122z" />
    <glyph glyph-name="Aring" unicode="&#xc5;" horiz-adv-x="721" 
d="M361 795q50 0 81.5 -30t31.5 -78q0 -22 -7.5 -41t-21.5 -34l260 -612h-152l-56 136h-279l-56 -136h-146l260 612q-14 14 -21 33.5t-7 41.5q0 48 31.5 78t81.5 30zM361 640q22 0 34.5 12.5t12.5 34.5t-12.5 34.5t-34.5 12.5t-34.5 -12.5t-12.5 -34.5t12.5 -34.5
t34.5 -12.5zM358 476l-89 -215h177z" />
    <glyph glyph-name="AE" unicode="&#xc6;" horiz-adv-x="959" 
d="M13 0l372 640h527v-127h-321v-129h291v-122h-291v-135h321v-127h-461v136h-212l-80 -136h-146zM451 497l-139 -236h139v236z" />
    <glyph glyph-name="Ccedilla" unicode="&#xc7;" horiz-adv-x="726" 
d="M548 264h146q-18 -122 -108.5 -198t-217.5 -76q-142 0 -236.5 94t-94.5 236q0 141 94.5 235.5t236.5 94.5q126 0 216.5 -76t109.5 -198h-146q-17 69 -64.5 107.5t-115.5 38.5q-84 0 -136 -55.5t-52 -146.5t52 -146t136 -55q69 0 116.5 38t63.5 107zM338 -26l81 -12
q50 -7 73 -26t23 -52q0 -36 -37.5 -59.5t-97.5 -23.5q-64 0 -103.5 25.5t-41.5 67.5h104q1 -16 11.5 -25t27.5 -9q15 0 23.5 6.5t8.5 17.5q0 12 -9 19.5t-29 10.5l-34 6v54z" />
    <glyph glyph-name="Egrave" unicode="&#xc8;" horiz-adv-x="583" 
d="M75 0v640h461v-127h-321v-129h291v-122h-291v-135h321v-127h-461zM127 840h140l100 -150h-116z" />
    <glyph glyph-name="Eacute" unicode="&#xc9;" horiz-adv-x="583" 
d="M75 0v640h461v-127h-321v-129h291v-122h-291v-135h321v-127h-461zM251 690l100 150h140l-124 -150h-116z" />
    <glyph glyph-name="Ecircumflex" unicode="&#xca;" horiz-adv-x="583" 
d="M75 0v640h461v-127h-321v-129h291v-122h-291v-135h321v-127h-461zM476 690h-111l-56 74l-57 -74h-111l104 150h127z" />
    <glyph glyph-name="Edieresis" unicode="&#xcb;" horiz-adv-x="583" 
d="M75 0v640h461v-127h-321v-129h291v-122h-291v-135h321v-127h-461zM158 718v122h122v-122h-122zM338 718v122h122v-122h-122z" />
    <glyph glyph-name="Igrave" unicode="&#xcc;" horiz-adv-x="290" 
d="M75 0v640h140v-640h-140zM-36 840h140l100 -150h-116z" />
    <glyph glyph-name="Iacute" unicode="&#xcd;" horiz-adv-x="290" 
d="M75 0v640h140v-640h-140zM88 690l100 150h140l-124 -150h-116z" />
    <glyph glyph-name="Icircumflex" unicode="&#xce;" horiz-adv-x="290" 
d="M75 0v640h140v-640h-140zM313 690h-111l-56 74l-57 -74h-111l104 150h127z" />
    <glyph glyph-name="Idieresis" unicode="&#xcf;" horiz-adv-x="290" 
d="M75 0v640h140v-640h-140zM-5 718v122h122v-122h-122zM175 718v122h122v-122h-122z" />
    <glyph glyph-name="Eth" unicode="&#xd0;" horiz-adv-x="737" 
d="M95 265h-72v114h72v261h273q144 0 238.5 -91t94.5 -229t-94.5 -229t-238.5 -91h-273v265zM380 379v-114h-145v-136h133q85 0 137.5 52.5t52.5 138.5t-52.5 138.5t-137.5 52.5h-133v-132h145z" />
    <glyph glyph-name="Ntilde" unicode="&#xd1;" horiz-adv-x="741" 
d="M75 0v640h135l321 -416v416h135v-640h-135l-321 415v-415h-135zM305 841q23 0 43.5 -9t49.5 -35q14 -12 19.5 -15.5t10.5 -3.5q9 0 12.5 12t3.5 40h84q0 -67 -23 -101t-69 -34q-22 0 -42.5 9t-48.5 34q-14 13 -20 16.5t-11 3.5q-9 0 -13 -12t-4 -40h-84q0 67 23 101
t69 34z" />
    <glyph glyph-name="Ograve" unicode="&#xd2;" horiz-adv-x="744" 
d="M372 650q144 0 239.5 -94t95.5 -236q0 -143 -95 -236.5t-240 -93.5t-240 93.5t-95 236.5q0 142 95.5 236t239.5 94zM372 119q86 0 138.5 55t52.5 146t-53 146.5t-138 55.5q-86 0 -139 -55.5t-53 -146.5q0 -90 53 -145.5t139 -55.5zM191 840h140l100 -150h-116z" />
    <glyph glyph-name="Oacute" unicode="&#xd3;" horiz-adv-x="744" 
d="M372 650q144 0 239.5 -94t95.5 -236q0 -143 -95 -236.5t-240 -93.5t-240 93.5t-95 236.5q0 142 95.5 236t239.5 94zM372 119q86 0 138.5 55t52.5 146t-53 146.5t-138 55.5q-86 0 -139 -55.5t-53 -146.5q0 -90 53 -145.5t139 -55.5zM315 690l100 150h140l-124 -150h-116z
" />
    <glyph glyph-name="Ocircumflex" unicode="&#xd4;" horiz-adv-x="744" 
d="M372 650q144 0 239.5 -94t95.5 -236q0 -143 -95 -236.5t-240 -93.5t-240 93.5t-95 236.5q0 142 95.5 236t239.5 94zM372 119q86 0 138.5 55t52.5 146t-53 146.5t-138 55.5q-86 0 -139 -55.5t-53 -146.5q0 -90 53 -145.5t139 -55.5zM540 690h-111l-56 74l-57 -74h-111
l104 150h127z" />
    <glyph glyph-name="Otilde" unicode="&#xd5;" horiz-adv-x="744" 
d="M372 650q144 0 239.5 -94t95.5 -236q0 -143 -95 -236.5t-240 -93.5t-240 93.5t-95 236.5q0 142 95.5 236t239.5 94zM372 119q86 0 138.5 55t52.5 146t-53 146.5t-138 55.5q-86 0 -139 -55.5t-53 -146.5q0 -90 53 -145.5t139 -55.5zM307 841q23 0 43.5 -9t49.5 -35
q14 -12 19.5 -15.5t10.5 -3.5q9 0 12.5 12t3.5 40h84q0 -67 -23 -101t-69 -34q-22 0 -42.5 9t-48.5 34q-14 13 -20 16.5t-11 3.5q-9 0 -13 -12t-4 -40h-84q0 67 23 101t69 34z" />
    <glyph glyph-name="Odieresis" unicode="&#xd6;" horiz-adv-x="744" 
d="M372 650q144 0 239.5 -94t95.5 -236q0 -143 -95 -236.5t-240 -93.5t-240 93.5t-95 236.5q0 142 95.5 236t239.5 94zM372 119q86 0 138.5 55t52.5 146t-53 146.5t-138 55.5q-86 0 -139 -55.5t-53 -146.5q0 -90 53 -145.5t139 -55.5zM222 718v122h122v-122h-122zM402 718
v122h122v-122h-122z" />
    <glyph glyph-name="multiply" unicode="&#xd7;" 
d="M290 200l-140 -140l-81 81l140 140l-140 140l81 81l140 -140l140 140l81 -81l-140 -140l140 -140l-81 -81z" />
    <glyph glyph-name="Oslash" unicode="&#xd8;" horiz-adv-x="753" 
d="M712 320q0 -143 -95 -236.5t-240 -93.5q-45 0 -88 10.5t-81 30.5l-26 -31h-140l81 98q-40 45 -60.5 101.5t-20.5 120.5q0 142 95.5 236t239.5 94q46 0 88.5 -10.5t80.5 -31.5l26 32h140l-82 -98q40 -45 61 -101.5t21 -120.5zM377 526q-87 0 -141.5 -57t-54.5 -149
q0 -32 7.5 -61.5t22.5 -54.5l252 304q-19 9 -41 13.5t-45 4.5zM377 115q87 0 141 56.5t54 148.5q0 33 -7.5 62.5t-21.5 53.5l-251 -304q19 -8 40.5 -12.5t44.5 -4.5z" />
    <glyph glyph-name="Ugrave" unicode="&#xd9;" horiz-adv-x="702" 
d="M351 -10q-140 0 -215 73t-75 209v368h140v-362q0 -79 37.5 -119t112.5 -40q74 0 112 40t38 119v362h140v-368q0 -136 -75 -209t-215 -73zM170 840h140l100 -150h-116z" />
    <glyph glyph-name="Uacute" unicode="&#xda;" horiz-adv-x="702" 
d="M351 -10q-140 0 -215 73t-75 209v368h140v-362q0 -79 37.5 -119t112.5 -40q74 0 112 40t38 119v362h140v-368q0 -136 -75 -209t-215 -73zM294 690l100 150h140l-124 -150h-116z" />
    <glyph glyph-name="Ucircumflex" unicode="&#xdb;" horiz-adv-x="702" 
d="M351 -10q-140 0 -215 73t-75 209v368h140v-362q0 -79 37.5 -119t112.5 -40q74 0 112 40t38 119v362h140v-368q0 -136 -75 -209t-215 -73zM519 690h-111l-56 74l-57 -74h-111l104 150h127z" />
    <glyph glyph-name="Udieresis" unicode="&#xdc;" horiz-adv-x="702" 
d="M351 -10q-140 0 -215 73t-75 209v368h140v-362q0 -79 37.5 -119t112.5 -40q74 0 112 40t38 119v362h140v-368q0 -136 -75 -209t-215 -73zM201 718v122h122v-122h-122zM381 718v122h122v-122h-122z" />
    <glyph glyph-name="Yacute" unicode="&#xdd;" horiz-adv-x="646" 
d="M486 640h153l-247 -400v-240h-140v242l-245 398h161l159 -266zM266 690l100 150h140l-124 -150h-116z" />
    <glyph glyph-name="Thorn" unicode="&#xde;" horiz-adv-x="633" 
d="M75 0v640h140v-97h128q122 0 190 -58t68 -162q0 -105 -67.5 -162.5t-190.5 -57.5h-128v-103h-140zM459 323q0 47 -28.5 71.5t-83.5 24.5h-132v-192h132q55 0 83.5 24.5t28.5 71.5z" />
    <glyph glyph-name="germandbls" unicode="&#xdf;" horiz-adv-x="642" 
d="M86 386h-70v114h71q6 95 68.5 147.5t171.5 52.5q107 0 172 -51t65 -136q0 -50 -19 -87t-56 -60q61 -22 92 -65.5t31 -106.5q0 -92 -63 -143t-177 -51h-90v117h78q55 0 84.5 23.5t29.5 67.5t-31.5 68.5t-87.5 24.5h-73v109h57q41 0 64 23.5t23 63.5q0 41 -26 63.5
t-73 22.5q-50 0 -77 -27t-27 -76v-480h-137v386z" />
    <glyph glyph-name="agrave" unicode="&#xe0;" horiz-adv-x="623" 
d="M556 500v-500h-97l-26 51q-30 -30 -69 -45.5t-84 -15.5q-104 0 -175.5 74t-71.5 186t71.5 186t175.5 74q45 0 84 -15.5t69 -45.5l26 51h97zM300 112q57 0 93 38t36 100t-36 100.5t-93 38.5t-93 -38.5t-36 -100.5t36 -100t93 -38zM118 691h140l100 -150h-116z" />
    <glyph glyph-name="aacute" unicode="&#xe1;" horiz-adv-x="623" 
d="M556 500v-500h-97l-26 51q-30 -30 -69 -45.5t-84 -15.5q-104 0 -175.5 74t-71.5 186t71.5 186t175.5 74q45 0 84 -15.5t69 -45.5l26 51h97zM300 112q57 0 93 38t36 100t-36 100.5t-93 38.5t-93 -38.5t-36 -100.5t36 -100t93 -38zM242 541l100 150h140l-124 -150h-116z
" />
    <glyph glyph-name="acircumflex" unicode="&#xe2;" horiz-adv-x="623" 
d="M556 500v-500h-97l-26 51q-30 -30 -69 -45.5t-84 -15.5q-104 0 -175.5 74t-71.5 186t71.5 186t175.5 74q45 0 84 -15.5t69 -45.5l26 51h97zM300 112q57 0 93 38t36 100t-36 100.5t-93 38.5t-93 -38.5t-36 -100.5t36 -100t93 -38zM467 541h-111l-56 74l-57 -74h-111
l104 150h127z" />
    <glyph glyph-name="atilde" unicode="&#xe3;" horiz-adv-x="623" 
d="M556 500v-500h-97l-26 51q-30 -30 -69 -45.5t-84 -15.5q-104 0 -175.5 74t-71.5 186t71.5 186t175.5 74q45 0 84 -15.5t69 -45.5l26 51h97zM300 112q57 0 93 38t36 100t-36 100.5t-93 38.5t-93 -38.5t-36 -100.5t36 -100t93 -38zM234 692q23 0 43.5 -9t49.5 -35
q14 -12 19.5 -15.5t10.5 -3.5q9 0 12.5 12t3.5 40h84q0 -67 -23 -101t-69 -34q-22 0 -42.5 9t-48.5 34q-14 13 -20 16.5t-11 3.5q-9 0 -13 -12t-4 -40h-84q0 67 23 101t69 34z" />
    <glyph glyph-name="adieresis" unicode="&#xe4;" horiz-adv-x="623" 
d="M556 500v-500h-97l-26 51q-30 -30 -69 -45.5t-84 -15.5q-104 0 -175.5 74t-71.5 186t71.5 186t175.5 74q45 0 84 -15.5t69 -45.5l26 51h97zM300 112q57 0 93 38t36 100t-36 100.5t-93 38.5t-93 -38.5t-36 -100.5t36 -100t93 -38zM149 569v122h122v-122h-122zM329 569v122
h122v-122h-122z" />
    <glyph glyph-name="aring" unicode="&#xe5;" horiz-adv-x="623" 
d="M556 500v-500h-97l-26 51q-30 -30 -69 -45.5t-84 -15.5q-104 0 -175.5 74t-71.5 186t71.5 186t175.5 74q45 0 84 -15.5t69 -45.5l26 51h97zM300 112q57 0 93 38t36 100t-36 100.5t-93 38.5t-93 -38.5t-36 -100.5t36 -100t93 -38zM300 740q50 0 81.5 -30t31.5 -78
t-31.5 -78t-81.5 -30t-81.5 30t-31.5 78t31.5 78t81.5 30zM300 585q22 0 34.5 12.5t12.5 34.5t-12.5 34.5t-34.5 12.5t-34.5 -12.5t-12.5 -34.5t12.5 -34.5t34.5 -12.5z" />
    <glyph glyph-name="ae" unicode="&#xe6;" horiz-adv-x="905" 
d="M730 168h136q-13 -79 -78.5 -128.5t-157.5 -49.5q-63 0 -115 24.5t-85 69.5q-29 -45 -80 -69.5t-119 -24.5q-91 0 -142.5 41.5t-51.5 114.5q0 74 51.5 112t153.5 38h129q-2 46 -29.5 71t-76.5 25q-36 0 -61.5 -14.5t-36.5 -42.5h-129q20 83 78.5 129t146.5 46
q63 0 109 -22.5t73 -66.5q30 43 76.5 66t105.5 23q108 0 175.5 -71t67.5 -187q0 -7 -0.5 -16.5t-1.5 -23.5h-369q8 -52 41.5 -79.5t86.5 -27.5q40 0 67 16.5t36 46.5zM617 398q-47 0 -76 -23.5t-40 -70.5h234q-7 44 -39 69t-79 25zM249 92q53 0 87.5 27.5t34.5 71.5v10h-112
q-46 0 -68.5 -13t-22.5 -40t21.5 -41.5t59.5 -14.5z" />
    <glyph glyph-name="ccedilla" unicode="&#xe7;" horiz-adv-x="583" 
d="M412 210h140q-13 -100 -83.5 -160t-174.5 -60q-114 0 -187.5 72.5t-73.5 187.5t73.5 187.5t187.5 72.5q104 0 174.5 -60t83.5 -160h-140q-11 46 -42.5 72.5t-75.5 26.5q-54 0 -88.5 -38.5t-34.5 -100.5t34 -100t89 -38q44 0 75.5 26t42.5 72zM261 -27l81 -12
q50 -7 73 -26t23 -52q0 -36 -37.5 -59.5t-97.5 -23.5q-64 0 -103.5 25.5t-41.5 67.5h104q1 -16 11.5 -25t27.5 -9q15 0 23.5 6.5t8.5 17.5q0 12 -9 19.5t-29 10.5l-34 6v54z" />
    <glyph glyph-name="egrave" unicode="&#xe8;" horiz-adv-x="575" 
d="M400 168h136q-13 -80 -78.5 -129t-160.5 -49q-116 0 -189.5 72.5t-73.5 187.5q0 116 71.5 188t185.5 72q112 0 180.5 -71t68.5 -187q0 -7 -0.5 -16.5t-1.5 -23.5h-369q8 -52 41.5 -79.5t86.5 -27.5q40 0 67 16.5t36 46.5zM287 398q-47 0 -76 -23.5t-40 -70.5h234
q-7 44 -39 69t-79 25zM109 690h140l100 -150h-116z" />
    <glyph glyph-name="eacute" unicode="&#xe9;" horiz-adv-x="575" 
d="M400 168h136q-13 -80 -78.5 -129t-160.5 -49q-116 0 -189.5 72.5t-73.5 187.5q0 116 71.5 188t185.5 72q112 0 180.5 -71t68.5 -187q0 -7 -0.5 -16.5t-1.5 -23.5h-369q8 -52 41.5 -79.5t86.5 -27.5q40 0 67 16.5t36 46.5zM287 398q-47 0 -76 -23.5t-40 -70.5h234
q-7 44 -39 69t-79 25zM233 540l100 150h140l-124 -150h-116z" />
    <glyph glyph-name="ecircumflex" unicode="&#xea;" horiz-adv-x="575" 
d="M400 168h136q-13 -80 -78.5 -129t-160.5 -49q-116 0 -189.5 72.5t-73.5 187.5q0 116 71.5 188t185.5 72q112 0 180.5 -71t68.5 -187q0 -7 -0.5 -16.5t-1.5 -23.5h-369q8 -52 41.5 -79.5t86.5 -27.5q40 0 67 16.5t36 46.5zM287 398q-47 0 -76 -23.5t-40 -70.5h234
q-7 44 -39 69t-79 25zM458 540h-111l-56 74l-57 -74h-111l104 150h127z" />
    <glyph glyph-name="edieresis" unicode="&#xeb;" horiz-adv-x="575" 
d="M400 168h136q-13 -80 -78.5 -129t-160.5 -49q-116 0 -189.5 72.5t-73.5 187.5q0 116 71.5 188t185.5 72q112 0 180.5 -71t68.5 -187q0 -7 -0.5 -16.5t-1.5 -23.5h-369q8 -52 41.5 -79.5t86.5 -27.5q40 0 67 16.5t36 46.5zM287 398q-47 0 -76 -23.5t-40 -70.5h234
q-7 44 -39 69t-79 25zM140 568v122h122v-122h-122zM320 568v122h122v-122h-122z" />
    <glyph glyph-name="igrave" unicode="&#xec;" horiz-adv-x="271" 
d="M67 0v500h137v-500h-137zM-46 690h140l100 -150h-116z" />
    <glyph glyph-name="iacute" unicode="&#xed;" horiz-adv-x="271" 
d="M67 0v500h137v-500h-137zM78 540l100 150h140l-124 -150h-116z" />
    <glyph glyph-name="icircumflex" unicode="&#xee;" horiz-adv-x="271" 
d="M67 0v500h137v-500h-137zM303 540h-111l-56 74l-57 -74h-111l104 150h127z" />
    <glyph glyph-name="idieresis" unicode="&#xef;" horiz-adv-x="271" 
d="M67 0v500h137v-500h-137zM-15 568v122h122v-122h-122zM165 568v122h122v-122h-122z" />
    <glyph glyph-name="eth" unicode="&#xf0;" horiz-adv-x="591" 
d="M256 539l-150 -47v95l90 28l-59 75h150l29 -38l154 48v-95l-94 -29l84 -109q57 -75 77.5 -124t20.5 -106q0 -109 -73.5 -178t-190.5 -69q-114 0 -188.5 70.5t-74.5 177.5q0 102 68 166.5t177 64.5q10 0 19.5 -0.5t18.5 -2.5zM169 238q0 -58 34.5 -92.5t90.5 -34.5
q57 0 91.5 34.5t34.5 92.5q0 56 -34.5 89.5t-91.5 33.5q-56 0 -90.5 -33.5t-34.5 -89.5z" />
    <glyph glyph-name="ntilde" unicode="&#xf1;" horiz-adv-x="606" 
d="M309 389q-49 0 -77 -29t-28 -80v-280h-137v500h97l26 -51q26 29 64 45t84 16q94 0 153 -57.5t59 -151.5v-301h-137v280q0 50 -28.5 79.5t-75.5 29.5zM244 691q23 0 43.5 -9t49.5 -35q14 -12 19.5 -15.5t10.5 -3.5q9 0 12.5 12t3.5 40h84q0 -67 -23 -101t-69 -34
q-22 0 -42.5 9t-48.5 34q-14 13 -20 16.5t-11 3.5q-9 0 -13 -12t-4 -40h-84q0 67 23 101t69 34z" />
    <glyph glyph-name="ograve" unicode="&#xf2;" horiz-adv-x="603" 
d="M301 510q118 0 193.5 -72.5t75.5 -187.5t-75.5 -187.5t-193.5 -72.5t-193 72.5t-75 187.5t75 187.5t193 72.5zM301 112q58 0 94.5 38t36.5 100t-36.5 100.5t-94.5 38.5t-94 -38.5t-36 -100.5t36 -100t94 -38zM120 690h140l100 -150h-116z" />
    <glyph glyph-name="oacute" unicode="&#xf3;" horiz-adv-x="603" 
d="M301 510q118 0 193.5 -72.5t75.5 -187.5t-75.5 -187.5t-193.5 -72.5t-193 72.5t-75 187.5t75 187.5t193 72.5zM301 112q58 0 94.5 38t36.5 100t-36.5 100.5t-94.5 38.5t-94 -38.5t-36 -100.5t36 -100t94 -38zM244 540l100 150h140l-124 -150h-116z" />
    <glyph glyph-name="ocircumflex" unicode="&#xf4;" horiz-adv-x="603" 
d="M301 510q118 0 193.5 -72.5t75.5 -187.5t-75.5 -187.5t-193.5 -72.5t-193 72.5t-75 187.5t75 187.5t193 72.5zM301 112q58 0 94.5 38t36.5 100t-36.5 100.5t-94.5 38.5t-94 -38.5t-36 -100.5t36 -100t94 -38zM469 540h-111l-56 74l-57 -74h-111l104 150h127z" />
    <glyph glyph-name="otilde" unicode="&#xf5;" horiz-adv-x="603" 
d="M301 510q118 0 193.5 -72.5t75.5 -187.5t-75.5 -187.5t-193.5 -72.5t-193 72.5t-75 187.5t75 187.5t193 72.5zM301 112q58 0 94.5 38t36.5 100t-36.5 100.5t-94.5 38.5t-94 -38.5t-36 -100.5t36 -100t94 -38zM236 691q23 0 43.5 -9t49.5 -35q14 -12 19.5 -15.5t10.5 -3.5
q9 0 12.5 12t3.5 40h84q0 -67 -23 -101t-69 -34q-22 0 -42.5 9t-48.5 34q-14 13 -20 16.5t-11 3.5q-9 0 -13 -12t-4 -40h-84q0 67 23 101t69 34z" />
    <glyph glyph-name="odieresis" unicode="&#xf6;" horiz-adv-x="603" 
d="M301 510q118 0 193.5 -72.5t75.5 -187.5t-75.5 -187.5t-193.5 -72.5t-193 72.5t-75 187.5t75 187.5t193 72.5zM301 112q58 0 94.5 38t36.5 100t-36.5 100.5t-94.5 38.5t-94 -38.5t-36 -100.5t36 -100t94 -38zM151 568v122h122v-122h-122zM331 568v122h122v-122h-122z" />
    <glyph glyph-name="divide" unicode="&#xf7;" 
d="M217 389v142h147v-142h-147zM515 224h-450v114h450v-114zM217 31v142h147v-142h-147z" />
    <glyph glyph-name="oslash" unicode="&#xf8;" horiz-adv-x="615" 
d="M577 250q0 -115 -75.5 -187.5t-193.5 -72.5q-35 0 -67.5 7t-61.5 21l-15 -18h-124l63 76q-31 34 -47 78.5t-16 95.5q0 115 75 187.5t193 72.5q35 0 68 -7t62 -21l15 18h124l-63 -76q31 -34 47 -78.5t16 -95.5zM308 395q-58 0 -96.5 -41.5t-38.5 -103.5q0 -19 4 -36.5
t12 -33.5l169 205q-11 5 -23.5 7.5t-26.5 2.5zM308 107q58 0 97 40.5t39 102.5q0 19 -4 36.5t-12 33.5l-168 -204q11 -4 23 -6.5t25 -2.5z" />
    <glyph glyph-name="ugrave" unicode="&#xf9;" 
d="M290 -10q-108 0 -172 57t-64 155v298h137v-283q0 -50 26 -77.5t73 -27.5t73 27.5t26 77.5v283h137v-298q0 -95 -65 -153.5t-171 -58.5zM108 690h140l100 -150h-116z" />
    <glyph glyph-name="uacute" unicode="&#xfa;" 
d="M290 -10q-108 0 -172 57t-64 155v298h137v-283q0 -50 26 -77.5t73 -27.5t73 27.5t26 77.5v283h137v-298q0 -95 -65 -153.5t-171 -58.5zM232 540l100 150h140l-124 -150h-116z" />
    <glyph glyph-name="ucircumflex" unicode="&#xfb;" 
d="M290 -10q-108 0 -172 57t-64 155v298h137v-283q0 -50 26 -77.5t73 -27.5t73 27.5t26 77.5v283h137v-298q0 -95 -65 -153.5t-171 -58.5zM457 540h-111l-56 74l-57 -74h-111l104 150h127z" />
    <glyph glyph-name="udieresis" unicode="&#xfc;" 
d="M290 -10q-108 0 -172 57t-64 155v298h137v-283q0 -50 26 -77.5t73 -27.5t73 27.5t26 77.5v283h137v-298q0 -95 -65 -153.5t-171 -58.5zM139 568v122h122v-122h-122zM319 568v122h122v-122h-122z" />
    <glyph glyph-name="yacute" unicode="&#xfd;" horiz-adv-x="564" 
d="M239 -4l1 4h-42l-191 500h142l137 -372l133 372h137l-197 -540q-28 -81 -74.5 -115.5t-135.5 -34.5h-79v121h71q45 0 65 13.5t33 51.5zM224 540l100 150h140l-124 -150h-116z" />
    <glyph glyph-name="thorn" unicode="&#xfe;" horiz-adv-x="623" 
d="M67 -190v880h137v-231q27 25 62.5 38t75.5 13q105 0 176.5 -74t71.5 -186t-71.5 -186t-176.5 -74q-40 0 -75.5 13t-62.5 38v-231h-137zM323 388q-57 0 -93 -38t-36 -100t36 -100t93 -38t93 38t36 100t-36 100t-93 38z" />
    <glyph glyph-name="ydieresis" unicode="&#xff;" horiz-adv-x="564" 
d="M239 -4l1 4h-42l-191 500h142l137 -372l133 372h137l-197 -540q-28 -81 -74.5 -115.5t-135.5 -34.5h-79v121h71q45 0 65 13.5t33 51.5zM131 568v122h122v-122h-122zM311 568v122h122v-122h-122z" />
    <glyph glyph-name="Amacron" unicode="&#x100;" horiz-adv-x="721" 
d="M288 640h145l272 -640h-152l-56 136h-279l-56 -136h-146zM358 476l-89 -215h177zM224 808h274v-94h-274v94z" />
    <glyph glyph-name="amacron" unicode="&#x101;" horiz-adv-x="623" 
d="M556 500v-500h-97l-26 51q-30 -30 -69 -45.5t-84 -15.5q-104 0 -175.5 74t-71.5 186t71.5 186t175.5 74q45 0 84 -15.5t69 -45.5l26 51h97zM300 112q57 0 93 38t36 100t-36 100.5t-93 38.5t-93 -38.5t-36 -100.5t36 -100t93 -38zM163 659h274v-94h-274v94z" />
    <glyph glyph-name="Abreve" unicode="&#x102;" horiz-adv-x="721" 
d="M288 640h145l272 -640h-152l-56 136h-279l-56 -136h-146zM358 476l-89 -215h177zM361 690q-69 0 -108 39.5t-39 110.5h93q0 -34 13.5 -50.5t40.5 -16.5t40.5 16.5t13.5 50.5h93q0 -71 -39 -110.5t-108 -39.5z" />
    <glyph glyph-name="abreve" unicode="&#x103;" horiz-adv-x="623" 
d="M556 500v-500h-97l-26 51q-30 -30 -69 -45.5t-84 -15.5q-104 0 -175.5 74t-71.5 186t71.5 186t175.5 74q45 0 84 -15.5t69 -45.5l26 51h97zM300 112q57 0 93 38t36 100t-36 100.5t-93 38.5t-93 -38.5t-36 -100.5t36 -100t93 -38zM300 541q-69 0 -108 39.5t-39 110.5h93
q0 -34 13.5 -50.5t40.5 -16.5t40.5 16.5t13.5 50.5h93q0 -71 -39 -110.5t-108 -39.5z" />
    <glyph glyph-name="Aogonek" unicode="&#x104;" horiz-adv-x="721" 
d="M433 640l272 -640l-59 -53q-10 -9 -15 -17.5t-5 -15.5q0 -8 6 -12.5t18 -4.5h55v-97h-89q-53 0 -82.5 21.5t-29.5 60.5q0 26 15 50t47 50l23 18h-36l-56 136h-279l-56 -136h-146l272 640h145zM358 476l-89 -215h177z" />
    <glyph glyph-name="aogonek" unicode="&#x105;" horiz-adv-x="623" 
d="M556 500v-500l-59 -53q-10 -9 -15 -17.5t-5 -15.5q0 -8 6 -12.5t18 -4.5h55v-97h-89q-53 0 -82.5 21.5t-29.5 60.5q0 26 15 50t47 50l37 29l-21 40q-30 -30 -69 -45.5t-84 -15.5q-104 0 -175.5 74t-71.5 186t71.5 186t175.5 74q45 0 84 -15.5t69 -45.5l26 51h97zM300 112
q57 0 93 38t36 100t-36 100.5t-93 38.5t-93 -38.5t-36 -100.5t36 -100t93 -38z" />
    <glyph glyph-name="Cacute" unicode="&#x106;" horiz-adv-x="726" 
d="M548 264h146q-18 -122 -108.5 -198t-217.5 -76q-142 0 -236.5 94t-94.5 236q0 141 94.5 235.5t236.5 94.5q126 0 216.5 -76t109.5 -198h-146q-17 69 -64.5 107.5t-115.5 38.5q-84 0 -136 -55.5t-52 -146.5t52 -146t136 -55q69 0 116.5 38t63.5 107zM306 690l100 150h140
l-124 -150h-116z" />
    <glyph glyph-name="cacute" unicode="&#x107;" horiz-adv-x="583" 
d="M412 210h140q-13 -100 -83.5 -160t-174.5 -60q-114 0 -187.5 72.5t-73.5 187.5t73.5 187.5t187.5 72.5q104 0 174.5 -60t83.5 -160h-140q-11 46 -42.5 72.5t-75.5 26.5q-54 0 -88.5 -38.5t-34.5 -100.5t34 -100t89 -38q44 0 75.5 26t42.5 72zM234 540l100 150h140
l-124 -150h-116z" />
    <glyph glyph-name="Ccircumflex" unicode="&#x108;" horiz-adv-x="726" 
d="M548 264h146q-18 -122 -108.5 -198t-217.5 -76q-142 0 -236.5 94t-94.5 236q0 141 94.5 235.5t236.5 94.5q126 0 216.5 -76t109.5 -198h-146q-17 69 -64.5 107.5t-115.5 38.5q-84 0 -136 -55.5t-52 -146.5t52 -146t136 -55q69 0 116.5 38t63.5 107zM531 690h-111l-56 74
l-57 -74h-111l104 150h127z" />
    <glyph glyph-name="ccircumflex" unicode="&#x109;" horiz-adv-x="583" 
d="M412 210h140q-13 -100 -83.5 -160t-174.5 -60q-114 0 -187.5 72.5t-73.5 187.5t73.5 187.5t187.5 72.5q104 0 174.5 -60t83.5 -160h-140q-11 46 -42.5 72.5t-75.5 26.5q-54 0 -88.5 -38.5t-34.5 -100.5t34 -100t89 -38q44 0 75.5 26t42.5 72zM459 540h-111l-56 74
l-57 -74h-111l104 150h127z" />
    <glyph glyph-name="Cdotaccent" unicode="&#x10a;" horiz-adv-x="726" 
d="M548 264h146q-18 -122 -108.5 -198t-217.5 -76q-142 0 -236.5 94t-94.5 236q0 141 94.5 235.5t236.5 94.5q126 0 216.5 -76t109.5 -198h-146q-17 69 -64.5 107.5t-115.5 38.5q-84 0 -136 -55.5t-52 -146.5t52 -146t136 -55q69 0 116.5 38t63.5 107zM296 708v132h137v-132
h-137z" />
    <glyph glyph-name="cdotaccent" unicode="&#x10b;" horiz-adv-x="583" 
d="M412 210h140q-13 -100 -83.5 -160t-174.5 -60q-114 0 -187.5 72.5t-73.5 187.5t73.5 187.5t187.5 72.5q104 0 174.5 -60t83.5 -160h-140q-11 46 -42.5 72.5t-75.5 26.5q-54 0 -88.5 -38.5t-34.5 -100.5t34 -100t89 -38q44 0 75.5 26t42.5 72zM223 558v132h137v-132h-137z
" />
    <glyph glyph-name="Ccaron" unicode="&#x10c;" horiz-adv-x="726" 
d="M548 264h146q-18 -122 -108.5 -198t-217.5 -76q-142 0 -236.5 94t-94.5 236q0 141 94.5 235.5t236.5 94.5q126 0 216.5 -76t109.5 -198h-146q-17 69 -64.5 107.5t-115.5 38.5q-84 0 -136 -55.5t-52 -146.5t52 -146t136 -55q69 0 116.5 38t63.5 107zM420 839h111
l-104 -150h-127l-104 150h111l57 -74z" />
    <glyph glyph-name="ccaron" unicode="&#x10d;" horiz-adv-x="583" 
d="M412 210h140q-13 -100 -83.5 -160t-174.5 -60q-114 0 -187.5 72.5t-73.5 187.5t73.5 187.5t187.5 72.5q104 0 174.5 -60t83.5 -160h-140q-11 46 -42.5 72.5t-75.5 26.5q-54 0 -88.5 -38.5t-34.5 -100.5t34 -100t89 -38q44 0 75.5 26t42.5 72zM350 689h111l-104 -150h-127
l-104 150h111l57 -74z" />
    <glyph glyph-name="Dcaron" unicode="&#x10e;" horiz-adv-x="717" 
d="M75 0v640h273q144 0 238.5 -91t94.5 -229t-94.5 -229t-238.5 -91h-273zM538 320q0 86 -52.5 138.5t-137.5 52.5h-133v-382h133q85 0 137.5 52.5t52.5 138.5zM413 839h111l-104 -150h-127l-104 150h111l57 -74z" />
    <glyph glyph-name="dcaron" unicode="&#x10f;" horiz-adv-x="687" 
d="M556 690v-690h-97l-26 51q-30 -30 -69 -45.5t-84 -15.5q-104 0 -175.5 74t-71.5 186t71.5 186t175.5 74q41 0 76.5 -13t62.5 -38v231h137zM300 112q57 0 93 38t36 100t-36 100.5t-93 38.5t-93 -38.5t-36 -100.5t36 -100t93 -38zM594 490v200h135l-35 -200h-100z" />
    <glyph glyph-name="Dcroat" unicode="&#x110;" horiz-adv-x="737" 
d="M95 265h-72v114h72v261h273q144 0 238.5 -91t94.5 -229t-94.5 -229t-238.5 -91h-273v265zM380 379v-114h-145v-136h133q85 0 137.5 52.5t52.5 138.5t-52.5 138.5t-137.5 52.5h-133v-132h145z" />
    <glyph glyph-name="dcroat" unicode="&#x111;" horiz-adv-x="623" 
d="M556 552v-552h-97l-26 51q-30 -30 -69 -45.5t-84 -15.5q-104 0 -175.5 74t-71.5 186t71.5 186t175.5 74q41 0 76.5 -13t62.5 -38v93h-214v94h214v44h137v-44h83v-94h-83zM300 112q57 0 93 38t36 100t-36 100.5t-93 38.5t-93 -38.5t-36 -100.5t36 -100t93 -38z" />
    <glyph glyph-name="Emacron" unicode="&#x112;" horiz-adv-x="583" 
d="M75 0v640h461v-127h-321v-129h291v-122h-291v-135h321v-127h-461zM172 808h274v-94h-274v94z" />
    <glyph glyph-name="emacron" unicode="&#x113;" horiz-adv-x="575" 
d="M400 168h136q-13 -80 -78.5 -129t-160.5 -49q-116 0 -189.5 72.5t-73.5 187.5q0 116 71.5 188t185.5 72q112 0 180.5 -71t68.5 -187q0 -7 -0.5 -16.5t-1.5 -23.5h-369q8 -52 41.5 -79.5t86.5 -27.5q40 0 67 16.5t36 46.5zM287 398q-47 0 -76 -23.5t-40 -70.5h234
q-7 44 -39 69t-79 25zM154 658h274v-94h-274v94z" />
    <glyph glyph-name="Ebreve" unicode="&#x114;" horiz-adv-x="583" 
d="M75 0v640h461v-127h-321v-129h291v-122h-291v-135h321v-127h-461zM309 690q-69 0 -108 39.5t-39 110.5h93q0 -34 13.5 -50.5t40.5 -16.5t40.5 16.5t13.5 50.5h93q0 -71 -39 -110.5t-108 -39.5z" />
    <glyph glyph-name="ebreve" unicode="&#x115;" horiz-adv-x="575" 
d="M400 168h136q-13 -80 -78.5 -129t-160.5 -49q-116 0 -189.5 72.5t-73.5 187.5q0 116 71.5 188t185.5 72q112 0 180.5 -71t68.5 -187q0 -7 -0.5 -16.5t-1.5 -23.5h-369q8 -52 41.5 -79.5t86.5 -27.5q40 0 67 16.5t36 46.5zM287 398q-47 0 -76 -23.5t-40 -70.5h234
q-7 44 -39 69t-79 25zM291 540q-69 0 -108 39.5t-39 110.5h93q0 -34 13.5 -50.5t40.5 -16.5t40.5 16.5t13.5 50.5h93q0 -71 -39 -110.5t-108 -39.5z" />
    <glyph glyph-name="Edotaccent" unicode="&#x116;" horiz-adv-x="583" 
d="M75 0v640h461v-127h-321v-129h291v-122h-291v-135h321v-127h-461zM241 708v132h137v-132h-137z" />
    <glyph glyph-name="edotaccent" unicode="&#x117;" horiz-adv-x="575" 
d="M400 168h136q-13 -80 -78.5 -129t-160.5 -49q-116 0 -189.5 72.5t-73.5 187.5q0 116 71.5 188t185.5 72q112 0 180.5 -71t68.5 -187q0 -7 -0.5 -16.5t-1.5 -23.5h-369q8 -52 41.5 -79.5t86.5 -27.5q40 0 67 16.5t36 46.5zM287 398q-47 0 -76 -23.5t-40 -70.5h234
q-7 44 -39 69t-79 25zM223 558v132h137v-132h-137z" />
    <glyph glyph-name="Eogonek" unicode="&#x118;" horiz-adv-x="583" 
d="M536 127v-127l-59 -53q-10 -9 -15 -17.5t-5 -15.5q0 -8 6 -12.5t18 -4.5h55v-97h-89q-53 0 -82.5 21.5t-29.5 60.5q0 26 15 50t47 50l23 18h-345v640h461v-127h-321v-129h291v-122h-291v-135h321z" />
    <glyph glyph-name="eogonek" unicode="&#x119;" horiz-adv-x="575" 
d="M400 168h136q-3 -21 -11.5 -47t-33.5 -78q-24 -51 -31 -73.5t-7 -39.5q0 -18 8.5 -25.5t26.5 -7.5h48v-97h-85q-52 0 -81.5 23t-29.5 63q0 19 7.5 40.5t39.5 76.5q-23 -7 -45.5 -10t-44.5 -3q-116 0 -189.5 72.5t-73.5 187.5q0 116 71.5 188t185.5 72q112 0 180.5 -71
t68.5 -187q0 -7 -0.5 -16.5t-1.5 -23.5h-369q8 -52 41.5 -79.5t86.5 -27.5q40 0 67 16.5t36 46.5zM287 398q-47 0 -76 -23.5t-40 -70.5h234q-7 44 -39 69t-79 25z" />
    <glyph glyph-name="Ecaron" unicode="&#x11a;" horiz-adv-x="583" 
d="M75 0v640h461v-127h-321v-129h291v-122h-291v-135h321v-127h-461zM365 839h111l-104 -150h-127l-104 150h111l57 -74z" />
    <glyph glyph-name="ecaron" unicode="&#x11b;" horiz-adv-x="575" 
d="M400 168h136q-13 -80 -78.5 -129t-160.5 -49q-116 0 -189.5 72.5t-73.5 187.5q0 116 71.5 188t185.5 72q112 0 180.5 -71t68.5 -187q0 -7 -0.5 -16.5t-1.5 -23.5h-369q8 -52 41.5 -79.5t86.5 -27.5q40 0 67 16.5t36 46.5zM287 398q-47 0 -76 -23.5t-40 -70.5h234
q-7 44 -39 69t-79 25zM347 689h111l-104 -150h-127l-104 150h111l57 -74z" />
    <glyph glyph-name="Gcircumflex" unicode="&#x11c;" horiz-adv-x="737" 
d="M337 358h360q1 -13 2 -27.5t1 -28.5q0 -140 -90.5 -226t-235.5 -86t-241 94t-96 236t95.5 236t238.5 94q124 0 210.5 -64t103.5 -164h-146q-14 43 -59.5 71.5t-107.5 28.5q-86 0 -139 -55.5t-53 -146.5q0 -92 54 -148t142 -56q75 0 121 32t56 92h-216v118zM536 690h-111
l-56 74l-57 -74h-111l104 150h127z" />
    <glyph glyph-name="gcircumflex" unicode="&#x11d;" horiz-adv-x="631" 
d="M444 450l28 50h92v-510q0 -97 -43.5 -138.5t-148.5 -41.5h-261l30 125h231q29 0 42 13t13 42v66q-29 -23 -65 -34.5t-77 -11.5q-106 0 -179.5 71t-73.5 179t73.5 179t179.5 71q46 0 86.5 -15.5t72.5 -44.5zM304 132q59 0 96 35.5t37 92.5q0 58 -37 93.5t-96 35.5
t-96.5 -35.5t-37.5 -93.5q0 -57 37.5 -92.5t96.5 -35.5zM472 540h-111l-56 74l-57 -74h-111l104 150h127z" />
    <glyph glyph-name="Gbreve" unicode="&#x11e;" horiz-adv-x="737" 
d="M337 358h360q1 -13 2 -27.5t1 -28.5q0 -140 -90.5 -226t-235.5 -86t-241 94t-96 236t95.5 236t238.5 94q124 0 210.5 -64t103.5 -164h-146q-14 43 -59.5 71.5t-107.5 28.5q-86 0 -139 -55.5t-53 -146.5q0 -92 54 -148t142 -56q75 0 121 32t56 92h-216v118zM369 690
q-69 0 -108 39.5t-39 110.5h93q0 -34 13.5 -50.5t40.5 -16.5t40.5 16.5t13.5 50.5h93q0 -71 -39 -110.5t-108 -39.5z" />
    <glyph glyph-name="gbreve" unicode="&#x11f;" horiz-adv-x="631" 
d="M444 450l28 50h92v-510q0 -97 -43.5 -138.5t-148.5 -41.5h-261l30 125h231q29 0 42 13t13 42v66q-29 -23 -65 -34.5t-77 -11.5q-106 0 -179.5 71t-73.5 179t73.5 179t179.5 71q46 0 86.5 -15.5t72.5 -44.5zM304 132q59 0 96 35.5t37 92.5q0 58 -37 93.5t-96 35.5
t-96.5 -35.5t-37.5 -93.5q0 -57 37.5 -92.5t96.5 -35.5zM305 540q-69 0 -108 39.5t-39 110.5h93q0 -34 13.5 -50.5t40.5 -16.5t40.5 16.5t13.5 50.5h93q0 -71 -39 -110.5t-108 -39.5z" />
    <glyph glyph-name="Gdotaccent" unicode="&#x120;" horiz-adv-x="737" 
d="M337 358h360q1 -13 2 -27.5t1 -28.5q0 -140 -90.5 -226t-235.5 -86t-241 94t-96 236t95.5 236t238.5 94q124 0 210.5 -64t103.5 -164h-146q-14 43 -59.5 71.5t-107.5 28.5q-86 0 -139 -55.5t-53 -146.5q0 -92 54 -148t142 -56q75 0 121 32t56 92h-216v118zM301 708v132
h137v-132h-137z" />
    <glyph glyph-name="gdotaccent" unicode="&#x121;" horiz-adv-x="631" 
d="M444 450l28 50h92v-510q0 -97 -43.5 -138.5t-148.5 -41.5h-261l30 125h231q29 0 42 13t13 42v66q-29 -23 -65 -34.5t-77 -11.5q-106 0 -179.5 71t-73.5 179t73.5 179t179.5 71q46 0 86.5 -15.5t72.5 -44.5zM304 132q59 0 96 35.5t37 92.5q0 58 -37 93.5t-96 35.5
t-96.5 -35.5t-37.5 -93.5q0 -57 37.5 -92.5t96.5 -35.5zM237 558v132h137v-132h-137z" />
    <glyph glyph-name="Gcommaaccent" unicode="&#x122;" horiz-adv-x="737" 
d="M337 358h360q1 -13 2 -27.5t1 -28.5q0 -140 -90.5 -226t-235.5 -86t-241 94t-96 236t95.5 236t238.5 94q124 0 210.5 -64t103.5 -164h-146q-14 43 -59.5 71.5t-107.5 28.5q-86 0 -139 -55.5t-53 -146.5q0 -92 54 -148t142 -56q75 0 121 32t56 92h-216v118zM217 -190
l92 140h140l-116 -140h-116z" />
    <glyph glyph-name="gcommaaccent" unicode="&#x123;" horiz-adv-x="631" 
d="M444 450l28 50h92v-510q0 -97 -43.5 -138.5t-148.5 -41.5h-261l30 125h231q29 0 42 13t13 42v66q-29 -23 -65 -34.5t-77 -11.5q-106 0 -179.5 71t-73.5 179t73.5 179t179.5 71q46 0 86.5 -15.5t72.5 -44.5zM304 132q59 0 96 35.5t37 92.5q0 58 -37 93.5t-96 35.5
t-96.5 -35.5t-37.5 -93.5q0 -57 37.5 -92.5t96.5 -35.5zM475 690l-100 -150h-140l124 150h116z" />
    <glyph glyph-name="Hcircumflex" unicode="&#x124;" horiz-adv-x="723" 
d="M75 0v640h140v-251h293v251h140v-640h-140v265h-293v-265h-140zM529 690h-111l-56 74l-57 -74h-111l104 150h127z" />
    <glyph glyph-name="hcircumflex" unicode="&#x125;" horiz-adv-x="606" 
d="M309 389q-49 0 -77 -29t-28 -80v-280h-137v690h137v-227q26 23 60.5 35t73.5 12q94 0 153 -57.5t59 -151.5v-301h-137v280q0 50 -28.5 79.5t-75.5 29.5zM414 740h-111l-56 74l-57 -74h-111l104 150h127z" />
    <glyph glyph-name="Hbar" unicode="&#x126;" horiz-adv-x="723" 
d="M75 561v79h140v-79h293v79h140v-79h72v-94h-72v-467h-140v265h-293v-265h-140v467h-72v94h72zM215 467v-78h293v78h-293z" />
    <glyph glyph-name="hbar" unicode="&#x127;" horiz-adv-x="606" 
d="M309 389q-49 0 -77 -29t-28 -80v-280h-137v552h-83v94h83v44h137v-44h214v-94h-214v-89q26 23 60.5 35t73.5 12q94 0 153 -57.5t59 -151.5v-301h-137v280q0 50 -28.5 79.5t-75.5 29.5z" />
    <glyph glyph-name="Itilde" unicode="&#x128;" horiz-adv-x="290" 
d="M75 0v640h140v-640h-140zM80 841q23 0 43.5 -9t49.5 -35q14 -12 19.5 -15.5t10.5 -3.5q9 0 12.5 12t3.5 40h84q0 -67 -23 -101t-69 -34q-22 0 -42.5 9t-48.5 34q-14 13 -20 16.5t-11 3.5q-9 0 -13 -12t-4 -40h-84q0 67 23 101t69 34z" />
    <glyph glyph-name="itilde" unicode="&#x129;" horiz-adv-x="271" 
d="M67 0v500h137v-500h-137zM70 691q23 0 43.5 -9t49.5 -35q14 -12 19.5 -15.5t10.5 -3.5q9 0 12.5 12t3.5 40h84q0 -67 -23 -101t-69 -34q-22 0 -42.5 9t-48.5 34q-14 13 -20 16.5t-11 3.5q-9 0 -13 -12t-4 -40h-84q0 67 23 101t69 34z" />
    <glyph glyph-name="Imacron" unicode="&#x12a;" horiz-adv-x="290" 
d="M75 0v640h140v-640h-140zM9 808h274v-94h-274v94z" />
    <glyph glyph-name="imacron" unicode="&#x12b;" horiz-adv-x="271" 
d="M67 0v500h137v-500h-137zM-1 658h274v-94h-274v94z" />
    <glyph glyph-name="Ibreve" unicode="&#x12c;" horiz-adv-x="290" 
d="M75 0v640h140v-640h-140zM146 690q-69 0 -108 39.5t-39 110.5h93q0 -34 13.5 -50.5t40.5 -16.5t40.5 16.5t13.5 50.5h93q0 -71 -39 -110.5t-108 -39.5z" />
    <glyph glyph-name="ibreve" unicode="&#x12d;" horiz-adv-x="271" 
d="M67 0v500h137v-500h-137zM136 540q-69 0 -108 39.5t-39 110.5h93q0 -34 13.5 -50.5t40.5 -16.5t40.5 16.5t13.5 50.5h93q0 -71 -39 -110.5t-108 -39.5z" />
    <glyph glyph-name="Iogonek" unicode="&#x12e;" horiz-adv-x="290" 
d="M75 0v640h140v-640l-42 -51q-9 -11 -13 -19.5t-4 -15.5q0 -8 6 -12.5t18 -4.5h55v-97h-89q-53 0 -82.5 21.5t-29.5 60.5q0 25 12.5 48t43.5 52l19 18h-34z" />
    <glyph glyph-name="iogonek" unicode="&#x12f;" horiz-adv-x="271" 
d="M67 558v132h137v-132h-137zM67 0v500h137v-500l-45 -51q-9 -10 -13.5 -18.5t-4.5 -16.5t6 -12.5t18 -4.5h55v-97h-89q-53 0 -82.5 21.5t-29.5 60.5q0 24 13 46.5t47 54.5l18 17h-30z" />
    <glyph glyph-name="Idotaccent" unicode="&#x130;" horiz-adv-x="290" 
d="M75 0v640h140v-640h-140zM78 708v132h137v-132h-137z" />
    <glyph glyph-name="dotlessi" unicode="&#x131;" horiz-adv-x="271" 
d="M67 0v500h137v-500h-137z" />
    <glyph glyph-name="IJ" unicode="&#x132;" horiz-adv-x="697" 
d="M75 0v640h140v-640h-140zM491 214v426h140v-438q0 -98 -54.5 -150t-158.5 -52h-105v126h78q55 0 77.5 19.5t22.5 68.5z" />
    <glyph glyph-name="ij" unicode="&#x133;" horiz-adv-x="542" 
d="M67 558v132h137v-132h-137zM67 0v500h137v-500h-137zM338 558v132h137v-132h-137zM338 -15v515h137v-517q0 -89 -44.5 -131t-141.5 -42h-73v122h48q38 0 56 13t18 40z" />
    <glyph glyph-name="Jcircumflex" unicode="&#x134;" horiz-adv-x="407" 
d="M201 214v426h140v-438q0 -98 -54.5 -150t-158.5 -52h-105v126h78q55 0 77.5 19.5t22.5 68.5zM437 690h-111l-56 74l-57 -74h-111l104 150h127z" />
    <glyph glyph-name="jcircumflex" unicode="&#x135;" horiz-adv-x="271" 
d="M67 -15v515h137v-517q0 -89 -44.5 -131t-141.5 -42h-73v122h48q38 0 56 13t18 40zM303 540h-111l-56 74l-57 -74h-111l104 150h127z" />
    <glyph glyph-name="Kcommaaccent" unicode="&#x136;" horiz-adv-x="677" 
d="M75 0v640h140v-252h64l213 252h162v-4l-256 -299l263 -332v-5h-173l-204 265h-69v-265h-140zM188 -190l92 140h140l-116 -140h-116z" />
    <glyph glyph-name="kcommaaccent" unicode="&#x137;" horiz-adv-x="581" 
d="M67 0v690h137v-379h64l142 189h150v-5l-179 -237l190 -253v-5h-161l-145 195h-61v-195h-137zM142 -190l92 140h140l-116 -140h-116z" />
    <glyph glyph-name="kgreenlandic" unicode="&#x138;" horiz-adv-x="581" 
d="M67 0v500h137v-189h64l142 189h150v-5l-179 -237l190 -253v-5h-161l-145 195h-61v-195h-137z" />
    <glyph glyph-name="Lacute" unicode="&#x139;" horiz-adv-x="544" 
d="M75 0v640h140v-511h306v-129h-446zM87 690l100 150h140l-124 -150h-116z" />
    <glyph glyph-name="lacute" unicode="&#x13a;" horiz-adv-x="271" 
d="M67 0v690h137v-690h-137zM78 740l100 150h140l-124 -150h-116z" />
    <glyph glyph-name="Lcommaaccent" unicode="&#x13b;" horiz-adv-x="544" 
d="M75 0v640h140v-511h306v-129h-446zM152 -190l92 140h140l-116 -140h-116z" />
    <glyph glyph-name="lcommaaccent" unicode="&#x13c;" horiz-adv-x="271" 
d="M67 0v690h137v-690h-137zM-26 -190l92 140h140l-116 -140h-116z" />
    <glyph glyph-name="Lcaron" unicode="&#x13d;" horiz-adv-x="544" 
d="M75 0v640h140v-511h306v-129h-446zM285 440v200h135l-35 -200h-100z" />
    <glyph glyph-name="lcaron" unicode="&#x13e;" horiz-adv-x="335" 
d="M67 0v690h137v-690h-137zM242 490v200h135l-35 -200h-100z" />
    <glyph glyph-name="Ldot" unicode="&#x13f;" horiz-adv-x="544" 
d="M75 0v640h140v-511h306v-129h-446zM349 298v132h137v-132h-137z" />
    <glyph glyph-name="ldot" unicode="&#x140;" horiz-adv-x="340" 
d="M67 0v690h137v-690h-137zM237 278v132h137v-132h-137z" />
    <glyph glyph-name="Lslash" unicode="&#x141;" horiz-adv-x="567" 
d="M238 421l135 78v-130l-135 -78v-162h306v-129h-446v210l-72 -41v130l72 41v300h140v-219z" />
    <glyph glyph-name="lslash" unicode="&#x142;" horiz-adv-x="326" 
d="M97 235l-74 -50v129l74 50v326h137v-233l74 50v-129l-74 -50v-328h-137v235z" />
    <glyph glyph-name="Nacute" unicode="&#x143;" horiz-adv-x="741" 
d="M75 0v640h135l321 -416v416h135v-640h-135l-321 415v-415h-135zM313 690l100 150h140l-124 -150h-116z" />
    <glyph glyph-name="nacute" unicode="&#x144;" horiz-adv-x="606" 
d="M309 389q-49 0 -77 -29t-28 -80v-280h-137v500h97l26 -51q26 29 64 45t84 16q94 0 153 -57.5t59 -151.5v-301h-137v280q0 50 -28.5 79.5t-75.5 29.5zM252 540l100 150h140l-124 -150h-116z" />
    <glyph glyph-name="Ncommaaccent" unicode="&#x145;" horiz-adv-x="741" 
d="M75 0v640h135l321 -416v416h135v-640h-135l-321 415v-415h-135zM208 -190l92 140h140l-116 -140h-116z" />
    <glyph glyph-name="ncommaaccent" unicode="&#x146;" horiz-adv-x="606" 
d="M309 389q-49 0 -77 -29t-28 -80v-280h-137v500h97l26 -51q26 29 64 45t84 16q94 0 153 -57.5t59 -151.5v-301h-137v280q0 50 -28.5 79.5t-75.5 29.5zM150 -190l92 140h140l-116 -140h-116z" />
    <glyph glyph-name="Ncaron" unicode="&#x147;" horiz-adv-x="741" 
d="M75 0v640h135l321 -416v416h135v-640h-135l-321 415v-415h-135zM427 839h111l-104 -150h-127l-104 150h111l57 -74z" />
    <glyph glyph-name="ncaron" unicode="&#x148;" horiz-adv-x="606" 
d="M309 389q-49 0 -77 -29t-28 -80v-280h-137v500h97l26 -51q26 29 64 45t84 16q94 0 153 -57.5t59 -151.5v-301h-137v280q0 50 -28.5 79.5t-75.5 29.5zM366 689h111l-104 -150h-127l-104 150h111l57 -74z" />
    <glyph glyph-name="napostrophe" unicode="&#x149;" horiz-adv-x="606" 
d="M309 389q-49 0 -77 -29t-28 -80v-280h-137v500h97l26 -51q26 29 64 45t84 16q94 0 153 -57.5t59 -151.5v-301h-137v280q0 50 -28.5 79.5t-75.5 29.5zM309 690l-100 -150h-140l124 150h116z" />
    <glyph glyph-name="Eng" unicode="&#x14a;" horiz-adv-x="741" 
d="M75 0v640h135l321 -416v416h135v-640q-4 -93 -57 -141.5t-151 -48.5h-105v126h78q49 0 72 15t27 51l-320 413v-415h-135z" />
    <glyph glyph-name="eng" unicode="&#x14b;" horiz-adv-x="606" 
d="M309 389q-49 0 -77 -29t-28 -80v-280h-137v500h97l26 -51q26 29 64 45t84 16q94 0 153 -57.5t59 -151.5v-318q0 -89 -44.5 -131t-141.5 -42h-83v126h58q37 0 55.5 12t18.5 37v295q0 50 -28.5 79.5t-75.5 29.5z" />
    <glyph glyph-name="Omacron" unicode="&#x14c;" horiz-adv-x="744" 
d="M372 650q144 0 239.5 -94t95.5 -236q0 -143 -95 -236.5t-240 -93.5t-240 93.5t-95 236.5q0 142 95.5 236t239.5 94zM372 119q86 0 138.5 55t52.5 146t-53 146.5t-138 55.5q-86 0 -139 -55.5t-53 -146.5q0 -90 53 -145.5t139 -55.5zM236 808h274v-94h-274v94z" />
    <glyph glyph-name="omacron" unicode="&#x14d;" horiz-adv-x="603" 
d="M301 510q118 0 193.5 -72.5t75.5 -187.5t-75.5 -187.5t-193.5 -72.5t-193 72.5t-75 187.5t75 187.5t193 72.5zM301 112q58 0 94.5 38t36.5 100t-36.5 100.5t-94.5 38.5t-94 -38.5t-36 -100.5t36 -100t94 -38zM165 658h274v-94h-274v94z" />
    <glyph glyph-name="Obreve" unicode="&#x14e;" horiz-adv-x="744" 
d="M372 650q144 0 239.5 -94t95.5 -236q0 -143 -95 -236.5t-240 -93.5t-240 93.5t-95 236.5q0 142 95.5 236t239.5 94zM372 119q86 0 138.5 55t52.5 146t-53 146.5t-138 55.5q-86 0 -139 -55.5t-53 -146.5q0 -90 53 -145.5t139 -55.5zM373 690q-69 0 -108 39.5t-39 110.5h93
q0 -34 13.5 -50.5t40.5 -16.5t40.5 16.5t13.5 50.5h93q0 -71 -39 -110.5t-108 -39.5z" />
    <glyph glyph-name="obreve" unicode="&#x14f;" horiz-adv-x="603" 
d="M301 510q118 0 193.5 -72.5t75.5 -187.5t-75.5 -187.5t-193.5 -72.5t-193 72.5t-75 187.5t75 187.5t193 72.5zM301 112q58 0 94.5 38t36.5 100t-36.5 100.5t-94.5 38.5t-94 -38.5t-36 -100.5t36 -100t94 -38zM302 540q-69 0 -108 39.5t-39 110.5h93q0 -34 13.5 -50.5
t40.5 -16.5t40.5 16.5t13.5 50.5h93q0 -71 -39 -110.5t-108 -39.5z" />
    <glyph glyph-name="Ohungarumlaut" unicode="&#x150;" horiz-adv-x="744" 
d="M372 650q144 0 239.5 -94t95.5 -236q0 -143 -95 -236.5t-240 -93.5t-240 93.5t-95 236.5q0 142 95.5 236t239.5 94zM372 119q86 0 138.5 55t52.5 146t-53 146.5t-138 55.5q-86 0 -139 -55.5t-53 -146.5q0 -90 53 -145.5t139 -55.5zM246 690l80 150h108l-97 -150h-91z
M409 690l80 150h108l-97 -150h-91z" />
    <glyph glyph-name="ohungarumlaut" unicode="&#x151;" horiz-adv-x="603" 
d="M301 510q118 0 193.5 -72.5t75.5 -187.5t-75.5 -187.5t-193.5 -72.5t-193 72.5t-75 187.5t75 187.5t193 72.5zM301 112q58 0 94.5 38t36.5 100t-36.5 100.5t-94.5 38.5t-94 -38.5t-36 -100.5t36 -100t94 -38zM175 540l80 150h108l-97 -150h-91zM338 540l80 150h108
l-97 -150h-91z" />
    <glyph glyph-name="OE" unicode="&#x152;" horiz-adv-x="960" 
d="M913 0h-544q-144 0 -238.5 91t-94.5 229t94.5 229t238.5 91h544v-127h-321v-129h291v-122h-291v-135h321v-127zM179 320q0 -86 52.5 -138.5t137.5 -52.5h83v382h-83q-85 0 -137.5 -52.5t-52.5 -138.5z" />
    <glyph glyph-name="oe" unicode="&#x153;" horiz-adv-x="973" 
d="M798 168h136q-13 -79 -77.5 -128.5t-155.5 -49.5q-63 0 -115 25t-86 71q-36 -46 -89 -71t-117 -25q-113 0 -187 73t-74 187t74 187t187 73q64 0 117.5 -24.5t87.5 -70.5q33 46 83.5 70.5t112.5 24.5q108 0 175.5 -71t67.5 -187q0 -7 -0.5 -16.5t-1.5 -23.5h-369
q8 -52 41.5 -79.5t86.5 -27.5q40 0 67 16.5t36 46.5zM685 398q-47 0 -76 -23.5t-40 -70.5h234q-7 44 -39 69t-79 25zM301 112q58 0 94.5 38t36.5 100t-36.5 100.5t-94.5 38.5t-94 -38.5t-36 -100.5t36 -100t94 -38z" />
    <glyph glyph-name="Racute" unicode="&#x154;" horiz-adv-x="643" 
d="M614 0h-161l-111 209h-127v-209h-140v640h272q116 0 181.5 -57t65.5 -159q0 -66 -30 -115t-86 -75zM452 422q0 45 -26.5 69.5t-74.5 24.5h-136v-187h136q48 0 74.5 24.5t26.5 68.5zM264 690l100 150h140l-124 -150h-116z" />
    <glyph glyph-name="racute" unicode="&#x155;" horiz-adv-x="407" 
d="M67 0v500h332l-40 -124h-155v-376h-137zM181 540l100 150h140l-124 -150h-116z" />
    <glyph glyph-name="Rcommaaccent" unicode="&#x156;" horiz-adv-x="643" 
d="M614 0h-161l-111 209h-127v-209h-140v640h272q116 0 181.5 -57t65.5 -159q0 -66 -30 -115t-86 -75zM452 422q0 45 -26.5 69.5t-74.5 24.5h-136v-187h136q48 0 74.5 24.5t26.5 68.5zM160 -190l92 140h140l-116 -140h-116z" />
    <glyph glyph-name="rcommaaccent" unicode="&#x157;" horiz-adv-x="407" 
d="M67 0v500h332l-40 -124h-155v-376h-137zM-27 -190l92 140h140l-116 -140h-116z" />
    <glyph glyph-name="Rcaron" unicode="&#x158;" horiz-adv-x="643" 
d="M614 0h-161l-111 209h-127v-209h-140v640h272q116 0 181.5 -57t65.5 -159q0 -66 -30 -115t-86 -75zM452 422q0 45 -26.5 69.5t-74.5 24.5h-136v-187h136q48 0 74.5 24.5t26.5 68.5zM378 839h111l-104 -150h-127l-104 150h111l57 -74z" />
    <glyph glyph-name="rcaron" unicode="&#x159;" horiz-adv-x="407" 
d="M67 0v500h332l-40 -124h-155v-376h-137zM295 689h111l-104 -150h-127l-104 150h111l57 -74z" />
    <glyph glyph-name="Sacute" unicode="&#x15a;" horiz-adv-x="598" 
d="M311 114q47 0 75 17.5t28 48.5q0 29 -23.5 45t-78.5 25l-56 8q-102 17 -157 67.5t-55 126.5q0 90 67 144t178 54q113 0 183.5 -56t70.5 -148h-143q0 38 -29.5 59.5t-80.5 21.5q-47 0 -75 -17.5t-28 -48.5q0 -28 25.5 -43.5t97.5 -26.5l56 -9q95 -15 144.5 -63t49.5 -125
q0 -94 -67.5 -149t-183.5 -55q-119 0 -194 59.5t-75 151.5h147q0 -38 35 -62.5t89 -24.5zM242 690l100 150h140l-124 -150h-116z" />
    <glyph glyph-name="sacute" unicode="&#x15b;" horiz-adv-x="509" 
d="M265 96q36 0 55 11.5t19 33.5q0 20 -18 30.5t-61 16.5l-49 7q-84 13 -126.5 51.5t-42.5 102.5q0 74 55 117.5t148 43.5q96 0 157 -45.5t61 -116.5h-128q0 26 -24 41.5t-66 15.5q-34 0 -52 -11.5t-18 -32.5q0 -20 18.5 -31t59.5 -18l49 -7q88 -13 130 -49t42 -98
q0 -76 -57.5 -122t-151.5 -46q-100 0 -165 50t-65 126h132q0 -31 27 -50.5t71 -19.5zM196 540l100 150h140l-124 -150h-116z" />
    <glyph glyph-name="Scircumflex" unicode="&#x15c;" horiz-adv-x="598" 
d="M311 114q47 0 75 17.5t28 48.5q0 29 -23.5 45t-78.5 25l-56 8q-102 17 -157 67.5t-55 126.5q0 90 67 144t178 54q113 0 183.5 -56t70.5 -148h-143q0 38 -29.5 59.5t-80.5 21.5q-47 0 -75 -17.5t-28 -48.5q0 -28 25.5 -43.5t97.5 -26.5l56 -9q95 -15 144.5 -63t49.5 -125
q0 -94 -67.5 -149t-183.5 -55q-119 0 -194 59.5t-75 151.5h147q0 -38 35 -62.5t89 -24.5zM467 690h-111l-56 74l-57 -74h-111l104 150h127z" />
    <glyph glyph-name="scircumflex" unicode="&#x15d;" horiz-adv-x="509" 
d="M265 96q36 0 55 11.5t19 33.5q0 20 -18 30.5t-61 16.5l-49 7q-84 13 -126.5 51.5t-42.5 102.5q0 74 55 117.5t148 43.5q96 0 157 -45.5t61 -116.5h-128q0 26 -24 41.5t-66 15.5q-34 0 -52 -11.5t-18 -32.5q0 -20 18.5 -31t59.5 -18l49 -7q88 -13 130 -49t42 -98
q0 -76 -57.5 -122t-151.5 -46q-100 0 -165 50t-65 126h132q0 -31 27 -50.5t71 -19.5zM422 540h-111l-56 74l-57 -74h-111l104 150h127z" />
    <glyph glyph-name="Scedilla" unicode="&#x15e;" horiz-adv-x="598" 
d="M311 114q47 0 75 17.5t28 48.5q0 29 -23.5 45t-78.5 25l-56 8q-102 17 -157 67.5t-55 126.5q0 90 67 144t178 54q113 0 183.5 -56t70.5 -148h-143q0 38 -29.5 59.5t-80.5 21.5q-47 0 -75 -17.5t-28 -48.5q0 -28 25.5 -43.5t97.5 -26.5l56 -9q95 -15 144.5 -63t49.5 -125
q0 -94 -67.5 -149t-183.5 -55q-119 0 -194 59.5t-75 151.5h147q0 -38 35 -62.5t89 -24.5zM262 -27l81 -12q50 -7 73 -26t23 -52q0 -36 -37.5 -59.5t-97.5 -23.5q-64 0 -103.5 25.5t-41.5 67.5h104q1 -16 11.5 -25t27.5 -9q15 0 23.5 6.5t8.5 17.5q0 12 -9 19.5t-29 10.5
l-34 6v54z" />
    <glyph glyph-name="scedilla" unicode="&#x15f;" horiz-adv-x="509" 
d="M265 96q36 0 55 11.5t19 33.5q0 20 -18 30.5t-61 16.5l-49 7q-84 13 -126.5 51.5t-42.5 102.5q0 74 55 117.5t148 43.5q96 0 157 -45.5t61 -116.5h-128q0 26 -24 41.5t-66 15.5q-34 0 -52 -11.5t-18 -32.5q0 -20 18.5 -31t59.5 -18l49 -7q88 -13 130 -49t42 -98
q0 -76 -57.5 -122t-151.5 -46q-100 0 -165 50t-65 126h132q0 -31 27 -50.5t71 -19.5zM217 -27l81 -12q50 -7 73 -26t23 -52q0 -36 -37.5 -59.5t-97.5 -23.5q-64 0 -103.5 25.5t-41.5 67.5h104q1 -16 11.5 -25t27.5 -9q15 0 23.5 6.5t8.5 17.5q0 12 -9 19.5t-29 10.5l-34 6
v54z" />
    <glyph glyph-name="Scaron" unicode="&#x160;" horiz-adv-x="598" 
d="M311 114q47 0 75 17.5t28 48.5q0 29 -23.5 45t-78.5 25l-56 8q-102 17 -157 67.5t-55 126.5q0 90 67 144t178 54q113 0 183.5 -56t70.5 -148h-143q0 38 -29.5 59.5t-80.5 21.5q-47 0 -75 -17.5t-28 -48.5q0 -28 25.5 -43.5t97.5 -26.5l56 -9q95 -15 144.5 -63t49.5 -125
q0 -94 -67.5 -149t-183.5 -55q-119 0 -194 59.5t-75 151.5h147q0 -38 35 -62.5t89 -24.5zM356 839h111l-104 -150h-127l-104 150h111l57 -74z" />
    <glyph glyph-name="scaron" unicode="&#x161;" horiz-adv-x="509" 
d="M265 96q36 0 55 11.5t19 33.5q0 20 -18 30.5t-61 16.5l-49 7q-84 13 -126.5 51.5t-42.5 102.5q0 74 55 117.5t148 43.5q96 0 157 -45.5t61 -116.5h-128q0 26 -24 41.5t-66 15.5q-34 0 -52 -11.5t-18 -32.5q0 -20 18.5 -31t59.5 -18l49 -7q88 -13 130 -49t42 -98
q0 -76 -57.5 -122t-151.5 -46q-100 0 -165 50t-65 126h132q0 -31 27 -50.5t71 -19.5zM311 689h111l-104 -150h-127l-104 150h111l57 -74z" />
    <glyph glyph-name="uni0162" unicode="&#x162;" horiz-adv-x="625" 
d="M243 511h-221v129h581v-129h-220v-511h-140v511zM150 -190l92 140h140l-116 -140h-116z" />
    <glyph glyph-name="uni0163" unicode="&#x163;" horiz-adv-x="412" 
d="M301 126h83v-126h-87q-107 0 -155.5 44t-48.5 142v200h-84v20l201 206h20v-112h144v-114h-144v-189q0 -37 17 -54t54 -17zM44 -190l92 140h140l-116 -140h-116z" />
    <glyph glyph-name="Tcaron" unicode="&#x164;" horiz-adv-x="625" 
d="M243 511h-221v129h581v-129h-220v-511h-140v511zM369 839h111l-104 -150h-127l-104 150h111l57 -74z" />
    <glyph glyph-name="tcaron" unicode="&#x165;" horiz-adv-x="412" 
d="M301 126h83v-126h-87q-107 0 -155.5 44t-48.5 142v200h-84v20l201 206h20v-112h144v-114h-144v-189q0 -37 17 -54t54 -17zM266 542v200h135l-35 -200h-100z" />
    <glyph glyph-name="Tbar" unicode="&#x166;" horiz-adv-x="625" 
d="M243 511h-221v129h581v-129h-220v-163h117v-124h-117v-224h-140v224h-117v124h117v163z" />
    <glyph glyph-name="tbar" unicode="&#x167;" horiz-adv-x="412" 
d="M230 293h103v-94h-103v-2q0 -37 17 -54t54 -17h83v-126h-87q-107 0 -155.5 44t-48.5 142v13h-74v94h74v93h-84v20l201 206h20v-112h144v-114h-144v-93z" />
    <glyph glyph-name="Utilde" unicode="&#x168;" horiz-adv-x="702" 
d="M351 -10q-140 0 -215 73t-75 209v368h140v-362q0 -79 37.5 -119t112.5 -40q74 0 112 40t38 119v362h140v-368q0 -136 -75 -209t-215 -73zM286 841q23 0 43.5 -9t49.5 -35q14 -12 19.5 -15.5t10.5 -3.5q9 0 12.5 12t3.5 40h84q0 -67 -23 -101t-69 -34q-22 0 -42.5 9
t-48.5 34q-14 13 -20 16.5t-11 3.5q-9 0 -13 -12t-4 -40h-84q0 67 23 101t69 34z" />
    <glyph glyph-name="utilde" unicode="&#x169;" 
d="M290 -10q-108 0 -172 57t-64 155v298h137v-283q0 -50 26 -77.5t73 -27.5t73 27.5t26 77.5v283h137v-298q0 -95 -65 -153.5t-171 -58.5zM224 691q23 0 43.5 -9t49.5 -35q14 -12 19.5 -15.5t10.5 -3.5q9 0 12.5 12t3.5 40h84q0 -67 -23 -101t-69 -34q-22 0 -42.5 9
t-48.5 34q-14 13 -20 16.5t-11 3.5q-9 0 -13 -12t-4 -40h-84q0 67 23 101t69 34z" />
    <glyph glyph-name="Umacron" unicode="&#x16a;" horiz-adv-x="702" 
d="M351 -10q-140 0 -215 73t-75 209v368h140v-362q0 -79 37.5 -119t112.5 -40q74 0 112 40t38 119v362h140v-368q0 -136 -75 -209t-215 -73zM215 808h274v-94h-274v94z" />
    <glyph glyph-name="umacron" unicode="&#x16b;" 
d="M290 -10q-108 0 -172 57t-64 155v298h137v-283q0 -50 26 -77.5t73 -27.5t73 27.5t26 77.5v283h137v-298q0 -95 -65 -153.5t-171 -58.5zM153 658h274v-94h-274v94z" />
    <glyph glyph-name="Ubreve" unicode="&#x16c;" horiz-adv-x="702" 
d="M351 -10q-140 0 -215 73t-75 209v368h140v-362q0 -79 37.5 -119t112.5 -40q74 0 112 40t38 119v362h140v-368q0 -136 -75 -209t-215 -73zM352 690q-69 0 -108 39.5t-39 110.5h93q0 -34 13.5 -50.5t40.5 -16.5t40.5 16.5t13.5 50.5h93q0 -71 -39 -110.5t-108 -39.5z" />
    <glyph glyph-name="ubreve" unicode="&#x16d;" 
d="M290 -10q-108 0 -172 57t-64 155v298h137v-283q0 -50 26 -77.5t73 -27.5t73 27.5t26 77.5v283h137v-298q0 -95 -65 -153.5t-171 -58.5zM290 540q-69 0 -108 39.5t-39 110.5h93q0 -34 13.5 -50.5t40.5 -16.5t40.5 16.5t13.5 50.5h93q0 -71 -39 -110.5t-108 -39.5z" />
    <glyph glyph-name="Uring" unicode="&#x16e;" horiz-adv-x="702" 
d="M351 -10q-140 0 -215 73t-75 209v368h140v-362q0 -79 37.5 -119t112.5 -40q74 0 112 40t38 119v362h140v-368q0 -136 -75 -209t-215 -73zM352 889q50 0 81.5 -30t31.5 -78t-31.5 -78t-81.5 -30t-81.5 30t-31.5 78t31.5 78t81.5 30zM352 734q22 0 34.5 12.5t12.5 34.5
t-12.5 34.5t-34.5 12.5t-34.5 -12.5t-12.5 -34.5t12.5 -34.5t34.5 -12.5z" />
    <glyph glyph-name="uring" unicode="&#x16f;" 
d="M290 -10q-108 0 -172 57t-64 155v298h137v-283q0 -50 26 -77.5t73 -27.5t73 27.5t26 77.5v283h137v-298q0 -95 -65 -153.5t-171 -58.5zM290 739q50 0 81.5 -30t31.5 -78t-31.5 -78t-81.5 -30t-81.5 30t-31.5 78t31.5 78t81.5 30zM290 584q22 0 34.5 12.5t12.5 34.5
t-12.5 34.5t-34.5 12.5t-34.5 -12.5t-12.5 -34.5t12.5 -34.5t34.5 -12.5z" />
    <glyph glyph-name="Uhungarumlaut" unicode="&#x170;" horiz-adv-x="702" 
d="M351 -10q-140 0 -215 73t-75 209v368h140v-362q0 -79 37.5 -119t112.5 -40q74 0 112 40t38 119v362h140v-368q0 -136 -75 -209t-215 -73zM225 690l80 150h108l-97 -150h-91zM388 690l80 150h108l-97 -150h-91z" />
    <glyph glyph-name="uhungarumlaut" unicode="&#x171;" 
d="M290 -10q-108 0 -172 57t-64 155v298h137v-283q0 -50 26 -77.5t73 -27.5t73 27.5t26 77.5v283h137v-298q0 -95 -65 -153.5t-171 -58.5zM163 540l80 150h108l-97 -150h-91zM326 540l80 150h108l-97 -150h-91z" />
    <glyph glyph-name="Uogonek" unicode="&#x172;" horiz-adv-x="702" 
d="M397 -103h55v-97h-89q-53 0 -82.5 21.5t-29.5 60.5q0 26 15 50t47 50l11 9q-127 7 -195 79.5t-68 201.5v368h140v-362q0 -79 37.5 -119t112.5 -40q74 0 112 40t38 119v362h140v-368q0 -83 -30.5 -144t-93.5 -102l-121 -80q-11 -8 -17 -16t-6 -16t6 -12.5t18 -4.5z" />
    <glyph glyph-name="uogonek" unicode="&#x173;" 
d="M336 -103h55v-97h-89q-53 0 -82.5 21.5t-29.5 60.5q0 26 15 50t47 50l11 9q-97 7 -153 63.5t-56 147.5v298h137v-283q0 -50 26 -77.5t73 -27.5t73 27.5t26 77.5v283h137v-298q0 -50 -21.5 -93t-64.5 -77l-108 -86q-10 -8 -15 -16.5t-5 -15.5q0 -8 6 -12.5t18 -4.5z" />
    <glyph glyph-name="Wcircumflex" unicode="&#x174;" horiz-adv-x="968" 
d="M16 640h149l128 -449l132 324l-47 125h151l156 -433l124 433h143l-193 -640h-139l-130 343l-141 -343h-139zM652 690h-111l-56 74l-57 -74h-111l104 150h127z" />
    <glyph glyph-name="wcircumflex" unicode="&#x175;" horiz-adv-x="827" 
d="M662 0h-140l-102 267l-108 -267h-130l-173 500h138l112 -336l104 253l-32 83h138l124 -336l98 336h125zM581 540h-111l-56 74l-57 -74h-111l104 150h127z" />
    <glyph glyph-name="Ycircumflex" unicode="&#x176;" horiz-adv-x="646" 
d="M486 640h153l-247 -400v-240h-140v242l-245 398h161l159 -266zM491 690h-111l-56 74l-57 -74h-111l104 150h127z" />
    <glyph glyph-name="ycircumflex" unicode="&#x177;" horiz-adv-x="564" 
d="M239 -4l1 4h-42l-191 500h142l137 -372l133 372h137l-197 -540q-28 -81 -74.5 -115.5t-135.5 -34.5h-79v121h71q45 0 65 13.5t33 51.5zM449 540h-111l-56 74l-57 -74h-111l104 150h127z" />
    <glyph glyph-name="Ydieresis" unicode="&#x178;" horiz-adv-x="646" 
d="M486 640h153l-247 -400v-240h-140v242l-245 398h161l159 -266zM173 718v122h122v-122h-122zM353 718v122h122v-122h-122z" />
    <glyph glyph-name="Zacute" unicode="&#x179;" horiz-adv-x="591" 
d="M365 512h-315v128h494v-128l-328 -383h337v-129h-516v129zM238 690l100 150h140l-124 -150h-116z" />
    <glyph glyph-name="zacute" unicode="&#x17a;" horiz-adv-x="504" 
d="M296 386h-253v114h415v-114l-260 -271h273v-115h-436v115zM194 540l100 150h140l-124 -150h-116z" />
    <glyph glyph-name="Zdotaccent" unicode="&#x17b;" horiz-adv-x="591" 
d="M365 512h-315v128h494v-128l-328 -383h337v-129h-516v129zM228 708v132h137v-132h-137z" />
    <glyph glyph-name="zdotaccent" unicode="&#x17c;" horiz-adv-x="504" 
d="M296 386h-253v114h415v-114l-260 -271h273v-115h-436v115zM184 558v132h137v-132h-137z" />
    <glyph glyph-name="Zcaron" unicode="&#x17d;" horiz-adv-x="591" 
d="M365 512h-315v128h494v-128l-328 -383h337v-129h-516v129zM352 839h111l-104 -150h-127l-104 150h111l57 -74z" />
    <glyph glyph-name="zcaron" unicode="&#x17e;" horiz-adv-x="504" 
d="M296 386h-253v114h415v-114l-260 -271h273v-115h-436v115zM308 689h111l-104 -150h-127l-104 150h111l57 -74z" />
    <glyph glyph-name="uni018F" unicode="&#x18f;" horiz-adv-x="737" 
d="M36 302q0 16 1 33.5t2 32.5h513q-14 71 -64.5 112.5t-123.5 41.5q-65 0 -108.5 -24t-58.5 -66h-146q18 97 102.5 157.5t209.5 60.5q145 0 240.5 -94t95.5 -236t-96 -236t-241 -94t-235.5 86t-90.5 226zM360 116q69 0 118.5 35.5t67.5 98.5h-364q7 -64 53.5 -99t124.5 -35
z" />
    <glyph glyph-name="uni0191" unicode="&#x191;" horiz-adv-x="564" 
d="M75 -15v655h458v-129h-318v-160h288v-123h-288v-245q0 -89 -45.5 -131t-143.5 -42h-83v126h58q37 0 55.5 12t18.5 37z" />
    <glyph glyph-name="uni0192" unicode="&#x192;" horiz-adv-x="392" 
d="M89 369h-70v114h70v23q0 92 48 138t144 46h122l-29 -110h-68q-41 0 -60.5 -17t-19.5 -53v-27h147v-114h-147v-386q0 -89 -44.5 -131t-141.5 -42h-73v122h48q38 0 56 13t18 40v384z" />
    <glyph glyph-name="Ohorn" unicode="&#x1a0;" horiz-adv-x="759" 
d="M610 543q47 -39 72 -96.5t25 -126.5q0 -143 -95 -236.5t-240 -93.5t-240 93.5t-95 236.5q0 142 95.5 236t239.5 94q23 0 46.5 -1t63.5 -5q26 -3 37.5 -3.5t21.5 -0.5q38 0 58.5 19.5t20.5 55.5v13h127v-28q0 -59 -36.5 -100t-100.5 -57zM372 119q86 0 138.5 55t52.5 146
t-53 146.5t-138 55.5q-86 0 -139 -55.5t-53 -146.5q0 -90 53 -145.5t139 -55.5z" />
    <glyph glyph-name="ohorn" unicode="&#x1a1;" horiz-adv-x="637" 
d="M506 400q31 -31 47.5 -71t16.5 -86q0 -110 -76 -181.5t-193 -71.5q-118 0 -193 72.5t-75 187.5t75 187.5t193 72.5q20 0 41 -1t56 -5q23 -3 33.5 -3.5t18.5 -0.5q33 0 51 19.5t18 55.5v13h127v-28q0 -61 -37.5 -103.5t-102.5 -56.5zM301 112q58 0 94.5 38t36.5 100
t-36.5 100.5t-94.5 38.5t-94 -38.5t-36 -100.5t36 -100t94 -38z" />
    <glyph glyph-name="Uhorn" unicode="&#x1af;" horiz-adv-x="796" 
d="M351 -10q-140 0 -215 73t-75 209v368h140v-362q0 -79 37.5 -119t112.5 -40q74 0 112 40t38 119v362h93q38 0 58.5 19.5t20.5 55.5v13h127v-28q0 -63 -43 -106.5t-116 -55.5v-266q0 -136 -75 -209t-215 -73z" />
    <glyph glyph-name="uhorn" unicode="&#x1b0;" horiz-adv-x="657" 
d="M290 -10q-108 0 -172 57t-64 155v298h137v-283q0 -50 26 -77.5t73 -27.5t73 27.5t26 77.5v283h81q33 0 51 19.5t18 55.5v13h127v-28q0 -63 -37.5 -107.5t-102.5 -58.5v-192q0 -95 -65 -153.5t-171 -58.5z" />
    <glyph glyph-name="uni0218" unicode="&#x218;" horiz-adv-x="598" 
d="M311 114q47 0 75 17.5t28 48.5q0 29 -23.5 45t-78.5 25l-56 8q-102 17 -157 67.5t-55 126.5q0 90 67 144t178 54q113 0 183.5 -56t70.5 -148h-143q0 38 -29.5 59.5t-80.5 21.5q-47 0 -75 -17.5t-28 -48.5q0 -28 25.5 -43.5t97.5 -26.5l56 -9q95 -15 144.5 -63t49.5 -125
q0 -94 -67.5 -149t-183.5 -55q-119 0 -194 59.5t-75 151.5h147q0 -38 35 -62.5t89 -24.5zM137 -190l92 140h140l-116 -140h-116z" />
    <glyph glyph-name="uni0219" unicode="&#x219;" horiz-adv-x="509" 
d="M265 96q36 0 55 11.5t19 33.5q0 20 -18 30.5t-61 16.5l-49 7q-84 13 -126.5 51.5t-42.5 102.5q0 74 55 117.5t148 43.5q96 0 157 -45.5t61 -116.5h-128q0 26 -24 41.5t-66 15.5q-34 0 -52 -11.5t-18 -32.5q0 -20 18.5 -31t59.5 -18l49 -7q88 -13 130 -49t42 -98
q0 -76 -57.5 -122t-151.5 -46q-100 0 -165 50t-65 126h132q0 -31 27 -50.5t71 -19.5zM92 -190l92 140h140l-116 -140h-116z" />
    <glyph glyph-name="uni021A" unicode="&#x21a;" horiz-adv-x="625" 
d="M243 511h-221v129h581v-129h-220v-511h-140v511zM150 -190l92 140h140l-116 -140h-116z" />
    <glyph glyph-name="uni021B" unicode="&#x21b;" horiz-adv-x="412" 
d="M301 126h83v-126h-87q-107 0 -155.5 44t-48.5 142v200h-84v20l201 206h20v-112h144v-114h-144v-189q0 -37 17 -54t54 -17zM44 -190l92 140h140l-116 -140h-116z" />
    <glyph glyph-name="dotlessj" unicode="&#x237;" horiz-adv-x="271" 
d="M67 -15v515h137v-517q0 -89 -44.5 -131t-141.5 -42h-73v122h48q38 0 56 13t18 40z" />
    <glyph glyph-name="uni0259" unicode="&#x259;" horiz-adv-x="575" 
d="M277 510q116 0 189.5 -72.5t73.5 -187.5q0 -116 -71.5 -188t-185.5 -72q-112 0 -180.5 71t-68.5 187q0 7 0.5 16.5t1.5 23.5h369q-8 52 -41.5 79.5t-86.5 27.5q-40 0 -67 -16.5t-36 -46.5h-136q13 80 78.5 129t160.5 49zM287 102q47 0 76 23.5t40 70.5h-234q7 -44 39 -69
t79 -25z" />
    <glyph glyph-name="uni02BC" unicode="&#x2bc;" horiz-adv-x="268" 
d="M34 350l52 290h147l-77 -290h-122z" />
    <glyph glyph-name="circumflex" unicode="&#x2c6;" horiz-adv-x="499" 
d="M417 540h-111l-56 74l-57 -74h-111l104 150h127z" />
    <glyph glyph-name="caron" unicode="&#x2c7;" horiz-adv-x="499" 
d="M306 689h111l-104 -150h-127l-104 150h111l57 -74z" />
    <glyph glyph-name="breve" unicode="&#x2d8;" horiz-adv-x="500" 
d="M250 540q-69 0 -108 39.5t-39 110.5h93q0 -34 13.5 -50.5t40.5 -16.5t40.5 16.5t13.5 50.5h93q0 -71 -39 -110.5t-108 -39.5z" />
    <glyph glyph-name="dotaccent" unicode="&#x2d9;" horiz-adv-x="501" 
d="M182 558v132h137v-132h-137z" />
    <glyph glyph-name="ring" unicode="&#x2da;" horiz-adv-x="500" 
d="M250 739q50 0 81.5 -30t31.5 -78t-31.5 -78t-81.5 -30t-81.5 30t-31.5 78t31.5 78t81.5 30zM250 584q22 0 34.5 12.5t12.5 34.5t-12.5 34.5t-34.5 12.5t-34.5 -12.5t-12.5 -34.5t12.5 -34.5t34.5 -12.5z" />
    <glyph glyph-name="ogonek" unicode="&#x2db;" horiz-adv-x="501" 
d="M291 44l60 -44l-59 -53q-10 -9 -15 -17.5t-5 -15.5q0 -8 6 -12.5t18 -4.5h55v-97h-89q-53 0 -82.5 21.5t-29.5 60.5q0 26 15 50t47 50z" />
    <glyph glyph-name="tilde" unicode="&#x2dc;" horiz-adv-x="499" 
d="M184 691q23 0 43.5 -9t49.5 -35q14 -12 19.5 -15.5t10.5 -3.5q9 0 12.5 12t3.5 40h84q0 -67 -23 -101t-69 -34q-22 0 -42.5 9t-48.5 34q-14 13 -20 16.5t-11 3.5q-9 0 -13 -12t-4 -40h-84q0 67 23 101t69 34z" />
    <glyph glyph-name="hungarumlaut" unicode="&#x2dd;" horiz-adv-x="499" 
d="M123 540l80 150h108l-97 -150h-91zM286 540l80 150h108l-97 -150h-91z" />
    <glyph glyph-name="uni0300" unicode="&#x300;" horiz-adv-x="0" 
d="M-182 690h140l100 -150h-116z" />
    <glyph glyph-name="uni0301" unicode="&#x301;" horiz-adv-x="0" 
d="M-58 540l100 150h140l-124 -150h-116z" />
    <glyph glyph-name="hookabovecmb" unicode="&#x309;" horiz-adv-x="500" 
d="M383 630q0 -36 -26.5 -59t-80.5 -33l-55 -10v67l36 7q15 3 22 9.5t7 17.5q0 13 -9 20t-26 7q-18 0 -27.5 -8.5t-10.5 -24.5h-96q0 49 37.5 80t97.5 31q58 0 94.5 -29t36.5 -75z" />
    <glyph glyph-name="dotbelowcmb" unicode="&#x323;" horiz-adv-x="500" 
d="M182 -190v132h137v-132h-137z" />
    <glyph glyph-name="commaaccentbelowcmb" unicode="&#x326;" horiz-adv-x="500" 
d="M88 -190l92 140h140l-116 -140h-116z" />
    <glyph glyph-name="uni0374" unicode="&#x374;" horiz-adv-x="236" 
d="M44 540l100 150h140l-124 -150h-116z" />
    <glyph glyph-name="uni0375" unicode="&#x375;" horiz-adv-x="176" 
d="M45 -190l100 150h140l-124 -150h-116z" />
    <glyph glyph-name="uni037E" unicode="&#x37e;" horiz-adv-x="252" 
d="M62 358v142h147v-142h-147zM10 -148l52 290h147l-77 -290h-122z" />
    <glyph glyph-name="tonos" unicode="&#x384;" horiz-adv-x="500" 
d="M192 540l100 150h140l-124 -150h-116z" />
    <glyph glyph-name="dieresistonos" unicode="&#x385;" horiz-adv-x="500" 
d="M192 720l100 110h140l-124 -110h-116zM99 568v122h122v-122h-122zM279 568v122h122v-122h-122z" />
    <glyph glyph-name="Alphatonos" unicode="&#x386;" horiz-adv-x="799" 
d="M366 640h145l272 -640h-152l-56 136h-279l-56 -136h-146zM436 476l-89 -215h177zM15 490l100 150h140l-124 -150h-116z" />
    <glyph glyph-name="anoteleia" unicode="&#x387;" horiz-adv-x="271" 
d="M62 358v142h147v-142h-147z" />
    <glyph glyph-name="Epsilontonos" unicode="&#x388;" horiz-adv-x="794" 
d="M286 0v640h461v-127h-321v-129h291v-122h-291v-135h321v-127h-461zM15 490l100 150h140l-124 -150h-116z" />
    <glyph glyph-name="Etatonos" unicode="&#x389;" horiz-adv-x="934" 
d="M286 0v640h140v-251h293v251h140v-640h-140v265h-293v-265h-140zM15 490l100 150h140l-124 -150h-116z" />
    <glyph glyph-name="Iotatonos" unicode="&#x38a;" horiz-adv-x="501" 
d="M286 0v640h140v-640h-140zM15 490l100 150h140l-124 -150h-116z" />
    <glyph glyph-name="Omicrontonos" unicode="&#x38c;" horiz-adv-x="901" 
d="M529 650q144 0 239.5 -94t95.5 -236q0 -143 -95 -236.5t-240 -93.5t-240 93.5t-95 236.5q0 142 95.5 236t239.5 94zM529 119q86 0 138.5 55t52.5 146t-53 146.5t-138 55.5q-86 0 -139 -55.5t-53 -146.5q0 -90 53 -145.5t139 -55.5zM15 490l100 150h140l-124 -150h-116z
" />
    <glyph glyph-name="Upsilontonos" unicode="&#x38e;" horiz-adv-x="919" 
d="M759 640h153l-247 -400v-240h-140v242l-245 398h161l159 -266zM15 490l100 150h140l-124 -150h-116z" />
    <glyph glyph-name="Omegatonos" unicode="&#x38f;" horiz-adv-x="936" 
d="M493 0h-268v127h94q-51 45 -76.5 100t-25.5 119q0 134 94.5 219t240.5 85t240.5 -85t94.5 -219q0 -64 -25.5 -119t-76.5 -100h94v-127h-268v127q64 35 98.5 89t34.5 119q0 84 -53 135.5t-139 51.5t-139 -51.5t-53 -135.5q0 -65 34.5 -119t98.5 -89v-127zM15 490l100 150
h140l-124 -150h-116z" />
    <glyph glyph-name="iotadieresistonos" unicode="&#x390;" horiz-adv-x="287" 
d="M59 166v334h137v-323q0 -27 11.5 -39t37.5 -12h23v-126h-27q-96 0 -139 39.5t-43 126.5zM69 720l100 110h140l-124 -110h-116zM-24 568v122h122v-122h-122zM156 568v122h122v-122h-122z" />
    <glyph glyph-name="Alpha" unicode="&#x391;" horiz-adv-x="721" 
d="M288 640h145l272 -640h-152l-56 136h-279l-56 -136h-146zM358 476l-89 -215h177z" />
    <glyph glyph-name="Beta" unicode="&#x392;" horiz-adv-x="634" 
d="M75 0v640h273q105 0 165.5 -46t60.5 -126q0 -47 -20 -81.5t-60 -55.5q50 -21 75 -59.5t25 -92.5q0 -85 -59.5 -132t-167.5 -47h-292zM432 452q0 34 -24.5 53t-68.5 19h-124v-144h124q44 0 68.5 19t24.5 53zM452 193q0 37 -25.5 57.5t-71.5 20.5h-140v-155h140
q46 0 71.5 20t25.5 57z" />
    <glyph glyph-name="Gamma" unicode="&#x393;" horiz-adv-x="533" 
d="M75 0v640h436v-127h-296v-513h-140z" />
    <glyph glyph-name="uni0394" unicode="&#x394;" horiz-adv-x="681" 
d="M268 640h145l239 -515v-125h-623v125zM338 483l-160 -358h319z" />
    <glyph glyph-name="Epsilon" unicode="&#x395;" horiz-adv-x="583" 
d="M75 0v640h461v-127h-321v-129h291v-122h-291v-135h321v-127h-461z" />
    <glyph glyph-name="Zeta" unicode="&#x396;" horiz-adv-x="591" 
d="M365 512h-315v128h494v-128l-328 -383h337v-129h-516v129z" />
    <glyph glyph-name="Eta" unicode="&#x397;" horiz-adv-x="723" 
d="M75 0v640h140v-251h293v251h140v-640h-140v265h-293v-265h-140z" />
    <glyph glyph-name="Theta" unicode="&#x398;" horiz-adv-x="744" 
d="M372 650q144 0 239.5 -94t95.5 -236q0 -143 -95 -236.5t-240 -93.5t-240 93.5t-95 236.5q0 142 95.5 236t239.5 94zM372 119q86 0 138.5 55t52.5 146t-53 146.5t-138 55.5q-86 0 -139 -55.5t-53 -146.5q0 -90 53 -145.5t139 -55.5zM487 262h-231v122h231v-122z" />
    <glyph glyph-name="Iota" unicode="&#x399;" horiz-adv-x="290" 
d="M75 0v640h140v-640h-140z" />
    <glyph glyph-name="Kappa" unicode="&#x39a;" horiz-adv-x="677" 
d="M75 0v640h140v-252h64l213 252h162v-4l-256 -299l263 -332v-5h-173l-204 265h-69v-265h-140z" />
    <glyph glyph-name="Lambda" unicode="&#x39b;" horiz-adv-x="721" 
d="M288 640h145l272 -640h-152l-195 476l-196 -476h-146z" />
    <glyph glyph-name="Mu" unicode="&#x39c;" horiz-adv-x="847" 
d="M489 53h-137l-132 367l-38 -420h-135l57 640h178l144 -413l143 413h173l58 -640h-142l-39 432z" />
    <glyph glyph-name="Nu" unicode="&#x39d;" horiz-adv-x="741" 
d="M75 0v640h135l321 -416v416h135v-640h-135l-321 415v-415h-135z" />
    <glyph glyph-name="Xi" unicode="&#x39e;" horiz-adv-x="595" 
d="M548 513h-501v127h501v-127zM518 262h-441v122h441v-122zM548 0h-501v127h501v-127z" />
    <glyph glyph-name="Omicron" unicode="&#x39f;" horiz-adv-x="744" 
d="M372 650q144 0 239.5 -94t95.5 -236q0 -143 -95 -236.5t-240 -93.5t-240 93.5t-95 236.5q0 142 95.5 236t239.5 94zM372 119q86 0 138.5 55t52.5 146t-53 146.5t-138 55.5q-86 0 -139 -55.5t-53 -146.5q0 -90 53 -145.5t139 -55.5z" />
    <glyph glyph-name="Pi" unicode="&#x3a0;" horiz-adv-x="723" 
d="M75 0v640h573v-640h-140v513h-293v-513h-140z" />
    <glyph glyph-name="Rho" unicode="&#x3a1;" horiz-adv-x="633" 
d="M75 0v640h268q122 0 190 -58t68 -162q0 -105 -67.5 -162.5t-190.5 -57.5h-128v-200h-140zM459 420q0 47 -28.5 71.5t-83.5 24.5h-132v-192h132q55 0 83.5 24.5t28.5 71.5z" />
    <glyph glyph-name="Sigma" unicode="&#x3a3;" horiz-adv-x="560" 
d="M522 0h-481v127l201 200l-201 186v127h481v-127h-307l162 -149v-82l-162 -155h307v-127z" />
    <glyph glyph-name="Tau" unicode="&#x3a4;" horiz-adv-x="625" 
d="M243 511h-221v129h581v-129h-220v-511h-140v511z" />
    <glyph glyph-name="Upsilon" unicode="&#x3a5;" horiz-adv-x="646" 
d="M486 640h153l-247 -400v-240h-140v242l-245 398h161l159 -266z" />
    <glyph glyph-name="Phi" unicode="&#x3a6;" horiz-adv-x="829" 
d="M344 588v52h140v-52q142 -1 226.5 -73t84.5 -195t-85 -195.5t-226 -72.5v-52h-140v52q-141 2 -225.5 74t-84.5 194q0 123 85 195.5t225 72.5zM177 320q0 -67 45 -103t127 -36v279q-82 0 -127 -36.5t-45 -103.5zM479 181h1q82 0 126.5 36t44.5 103q0 68 -44.5 104
t-126.5 36h-1v-279z" />
    <glyph glyph-name="Chi" unicode="&#x3a7;" horiz-adv-x="669" 
d="M174 0h-158l230 331l-219 309h173l141 -199l134 199h158l-213 -310l234 -330h-173l-156 219z" />
    <glyph glyph-name="Psi" unicode="&#x3a8;" horiz-adv-x="815" 
d="M337 325v315h140v-315q79 11 118 49.5t39 105.5v160h144v-160q0 -121 -79 -195t-222 -89v-196h-140v196q-143 15 -221.5 89t-78.5 195v160h143v-160q0 -67 39 -105.5t118 -49.5z" />
    <glyph glyph-name="uni03A9" unicode="&#x3a9;" horiz-adv-x="768" 
d="M325 0h-268v127h94q-51 45 -76.5 100t-25.5 119q0 134 94.5 219t240.5 85t240.5 -85t94.5 -219q0 -64 -25.5 -119t-76.5 -100h94v-127h-268v127q64 35 98.5 89t34.5 119q0 84 -53 135.5t-139 51.5t-139 -51.5t-53 -135.5q0 -65 34.5 -119t98.5 -89v-127z" />
    <glyph glyph-name="Iotadieresis" unicode="&#x3aa;" horiz-adv-x="290" 
d="M75 0v640h140v-640h-140zM-5 718v122h122v-122h-122zM175 718v122h122v-122h-122z" />
    <glyph glyph-name="Upsilondieresis" unicode="&#x3ab;" horiz-adv-x="646" 
d="M486 640h153l-247 -400v-240h-140v242l-245 398h161l159 -266zM173 718v122h122v-122h-122zM353 718v122h122v-122h-122z" />
    <glyph glyph-name="alphatonos" unicode="&#x3ac;" horiz-adv-x="637" 
d="M617 0h-23q-60 0 -98.5 15t-58.5 46q-30 -34 -71 -52.5t-89 -18.5q-102 0 -172.5 74t-70.5 186t70.5 186t172.5 74q44 0 82.5 -15.5t67.5 -44.5l25 50h97v-323q0 -27 11.5 -39t37.5 -12h19v-126zM297 112q55 0 90 38t35 100t-35 100.5t-90 38.5t-90 -38.5t-35 -100.5
t34.5 -100t90.5 -38zM243 541l100 150h140l-124 -150h-116z" />
    <glyph glyph-name="epsilontonos" unicode="&#x3ad;" horiz-adv-x="548" 
d="M385 167h139q-6 -82 -74 -129.5t-180 -47.5q-103 0 -167 41t-64 107q0 38 22 67.5t63 48.5q-39 17 -60 44.5t-21 62.5q0 69 61 109t164 40q108 0 174 -46.5t72 -128.5h-139q-7 34 -32.5 50t-73.5 16q-40 0 -64 -13.5t-24 -36.5t20.5 -36t55.5 -13h102v-97h-100
q-39 0 -61.5 -14.5t-22.5 -40.5q0 -24 25 -37.5t71 -13.5q51 0 79 16.5t35 51.5zM198 540l100 150h140l-124 -150h-116z" />
    <glyph glyph-name="etatonos" unicode="&#x3ae;" horiz-adv-x="606" 
d="M309 389q-49 0 -77 -29t-28 -80v-280h-137v500h97l26 -51q26 29 64 45t84 16q94 0 153 -57.5t59 -151.5v-491h-137v470q0 50 -28.5 79.5t-75.5 29.5zM252 540l100 150h140l-124 -150h-116z" />
    <glyph glyph-name="iotatonos" unicode="&#x3af;" horiz-adv-x="287" 
d="M59 166v334h137v-323q0 -27 11.5 -39t37.5 -12h23v-126h-27q-96 0 -139 39.5t-43 126.5zM69 540l100 150h140l-124 -150h-116z" />
    <glyph glyph-name="upsilondieresistonos" unicode="&#x3b0;" horiz-adv-x="575" 
d="M530 256q0 -127 -63 -196.5t-175 -69.5q-109 0 -173.5 57.5t-64.5 154.5v298h137v-283q0 -50 26.5 -77.5t74.5 -27.5q51 0 76 36t25 109q0 52 -10 114.5t-30 128.5h137q20 -70 30 -132.5t10 -111.5zM219 720l100 110h140l-124 -110h-116zM126 568v122h122v-122h-122z
M306 568v122h122v-122h-122z" />
    <glyph glyph-name="alpha" unicode="&#x3b1;" horiz-adv-x="637" 
d="M617 0h-23q-60 0 -98.5 15t-58.5 46q-30 -34 -71 -52.5t-89 -18.5q-102 0 -172.5 74t-70.5 186t70.5 186t172.5 74q44 0 82.5 -15.5t67.5 -44.5l25 50h97v-323q0 -27 11.5 -39t37.5 -12h19v-126zM297 112q55 0 90 38t35 100t-35 100.5t-90 38.5t-90 -38.5t-35 -100.5
t34.5 -100t90.5 -38z" />
    <glyph glyph-name="beta" unicode="&#x3b2;" horiz-adv-x="629" 
d="M599 198q0 -93 -65.5 -150.5t-171.5 -57.5q-46 0 -86.5 14.5t-71.5 42.5v-237h-137v654q0 108 68.5 172t185.5 64q106 0 172 -53t66 -138q0 -46 -20 -82t-58 -59q57 -23 87.5 -66.5t30.5 -103.5zM351 296h-82v121h62q41 0 65.5 22t24.5 59q0 38 -26.5 59.5t-73.5 21.5
q-57 0 -87 -29.5t-30 -85.5v-224q0 -58 39 -93.5t103 -35.5q54 0 84.5 25.5t30.5 70.5q0 42 -29 65.5t-81 23.5z" />
    <glyph glyph-name="gamma" unicode="&#x3b3;" horiz-adv-x="564" 
d="M212 -190v190l-206 500h142l138 -343q39 82 71.5 167.5t60.5 175.5h137q-40 -125 -91.5 -250t-114.5 -248v-192h-137z" />
    <glyph glyph-name="delta" unicode="&#x3b4;" horiz-adv-x="596" 
d="M566 230q0 -106 -75.5 -173t-193.5 -67q-117 0 -192.5 66.5t-75.5 170.5q0 84 55 144t147 77l-163 127v115h464l-29 -116h-248l133 -94q103 -72 140.5 -126t37.5 -124zM297 112q60 0 95.5 32t35.5 86q0 52 -35.5 82.5t-95.5 30.5t-95 -30.5t-35 -82.5q0 -55 35 -86.5
t95 -31.5z" />
    <glyph glyph-name="epsilon" unicode="&#x3b5;" horiz-adv-x="548" 
d="M385 167h139q-6 -82 -74 -129.5t-180 -47.5q-103 0 -167 41t-64 107q0 38 22 67.5t63 48.5q-39 17 -60 44.5t-21 62.5q0 69 61 109t164 40q108 0 174 -46.5t72 -128.5h-139q-7 34 -32.5 50t-73.5 16q-40 0 -64 -13.5t-24 -36.5t20.5 -36t55.5 -13h102v-97h-100
q-39 0 -61.5 -14.5t-22.5 -40.5q0 -24 25 -37.5t71 -13.5q51 0 79 16.5t35 51.5z" />
    <glyph glyph-name="zeta" unicode="&#x3b6;" horiz-adv-x="483" 
d="M53 690h419v-116q-173 -108 -238 -172t-65 -130q0 -43 23 -73t65 -42l79 -23q68 -20 106 -66t38 -108q0 -70 -49 -110t-131 -40h-104v121h94q27 0 39.5 7t12.5 23t-13 27t-41 19l-92 27q-78 23 -121.5 80t-43.5 137q0 96 65 179.5t184 143.5h-227v116z" />
    <glyph glyph-name="eta" unicode="&#x3b7;" horiz-adv-x="606" 
d="M309 389q-49 0 -77 -29t-28 -80v-280h-137v500h97l26 -51q26 29 64 45t84 16q94 0 153 -57.5t59 -151.5v-491h-137v470q0 50 -28.5 79.5t-75.5 29.5z" />
    <glyph glyph-name="theta" unicode="&#x3b8;" horiz-adv-x="621" 
d="M310 700q124 0 196.5 -94.5t72.5 -260.5t-72.5 -260.5t-196.5 -94.5t-196 94.5t-72 260.5t72 260.5t196 94.5zM310 579q-57 0 -91.5 -48t-41.5 -139h267q-7 91 -41.5 139t-92.5 48zM310 112q58 0 93 48.5t41 139.5h-267q6 -92 40.5 -140t92.5 -48z" />
    <glyph glyph-name="iota" unicode="&#x3b9;" horiz-adv-x="287" 
d="M59 166v334h137v-323q0 -27 11.5 -39t37.5 -12h23v-126h-27q-96 0 -139 39.5t-43 126.5z" />
    <glyph glyph-name="kappa" unicode="&#x3ba;" horiz-adv-x="590" 
d="M67 0v500h137v-189h66l92 119q30 41 61.5 55.5t88.5 14.5h39v-126h-49q-16 0 -26 -4.5t-19 -15.5l-76 -96l190 -253v-5h-161l-145 195h-61v-195h-137z" />
    <glyph glyph-name="lambda" unicode="&#x3bb;" horiz-adv-x="599" 
d="M555 126h25v-126h-27q-75 0 -111.5 18.5t-56.5 62.5l-105 241l-133 -322h-137l201 480l-15 34q-12 27 -27 38.5t-39 11.5h-45v126h47q75 0 111.5 -18.5t56.5 -62.5l189 -433q12 -27 27 -38.5t39 -11.5z" />
    <glyph glyph-name="uni03BC" unicode="&#x3bc;" horiz-adv-x="627" 
d="M204 20v-210h-137v690h137v-283q0 -50 26 -77.5t73 -27.5t73 27.5t26 77.5v283h137v-323q0 -27 11.5 -39t37.5 -12h19v-126h-23q-56 0 -93 12.5t-58 39.5q-23 -30 -56.5 -46t-73.5 -16q-29 0 -54 7.5t-45 22.5z" />
    <glyph glyph-name="nu" unicode="&#x3bd;" horiz-adv-x="565" 
d="M356 0h-150l-200 500h142l138 -356q41 90 74 179t58 177h137q-38 -122 -87.5 -247t-111.5 -253z" />
    <glyph glyph-name="xi" unicode="&#x3be;" horiz-adv-x="498" 
d="M128 322q-39 17 -59.5 44.5t-20.5 64.5q0 47 38.5 80t129.5 63h-177v116h429v-116q-146 -32 -214 -63t-68 -71q0 -25 20.5 -37.5t59.5 -12.5h170v-124h-180q-38 0 -59 -15t-21 -41q0 -24 20 -39t68 -24l79 -16q71 -15 107.5 -58t36.5 -112q0 -71 -49 -111t-131 -40h-104
v121h94q27 0 39.5 7t12.5 23t-13.5 26.5t-40.5 16.5l-92 20q-80 19 -122.5 62t-42.5 107q0 45 23 78.5t67 50.5z" />
    <glyph glyph-name="omicron" unicode="&#x3bf;" horiz-adv-x="603" 
d="M301 510q118 0 193.5 -72.5t75.5 -187.5t-75.5 -187.5t-193.5 -72.5t-193 72.5t-75 187.5t75 187.5t193 72.5zM301 112q58 0 94.5 38t36.5 100t-36.5 100.5t-94.5 38.5t-94 -38.5t-36 -100.5t36 -100t94 -38z" />
    <glyph glyph-name="pi" unicode="&#x3c0;" horiz-adv-x="666" 
d="M233 386v-386h-137v386h-80v114h602v-114h-83v-209q0 -27 11.5 -39t37.5 -12h34v-126h-38q-96 0 -139 39.5t-43 126.5v220h-165z" />
    <glyph glyph-name="rho" unicode="&#x3c1;" horiz-adv-x="608" 
d="M52 -190v440q0 117 70.5 188.5t185.5 71.5q117 0 192 -72.5t75 -187.5q0 -112 -71.5 -186t-176.5 -74q-40 0 -75.5 13t-62.5 38v-231h-137zM308 389q-57 0 -93 -38.5t-36 -100.5t36 -100t93 -38t93 38t36 100t-36 100.5t-93 38.5z" />
    <glyph glyph-name="uni03C2" unicode="&#x3c2;" horiz-adv-x="567" 
d="M33 261q0 112 71 180.5t186 68.5q107 0 178 -60t84 -160h-140q-11 46 -44 72.5t-78 26.5q-51 0 -85 -33.5t-34 -85.5q0 -42 23 -71.5t65 -41.5l79 -23q68 -20 106 -66t38 -108q0 -70 -49 -110t-131 -40h-104v121h94q27 0 39.5 7t12.5 23t-13 27t-41 19l-92 27
q-80 23 -122.5 82t-42.5 145z" />
    <glyph glyph-name="sigma" unicode="&#x3c3;" horiz-adv-x="648" 
d="M570 234q0 -106 -76.5 -175t-192.5 -69q-118 0 -193 71t-75 184t75 184t193 71h340l-37 -114h-102q33 -27 50.5 -66t17.5 -86zM301 112q58 0 94.5 36.5t36.5 96.5t-36.5 97t-94.5 37t-94 -37t-36 -97t36 -96.5t94 -36.5z" />
    <glyph glyph-name="tau" unicode="&#x3c4;" horiz-adv-x="498" 
d="M172 386h-156v114h466v-114h-173v-209q0 -27 11.5 -39t37.5 -12h63v-126h-67q-96 0 -139 39.5t-43 126.5v220z" />
    <glyph glyph-name="upsilon" unicode="&#x3c5;" horiz-adv-x="575" 
d="M530 256q0 -127 -63 -196.5t-175 -69.5q-109 0 -173.5 57.5t-64.5 154.5v298h137v-283q0 -50 26.5 -77.5t74.5 -27.5q51 0 76 36t25 109q0 52 -10 114.5t-30 128.5h137q20 -70 30 -132.5t10 -111.5z" />
    <glyph glyph-name="phi" unicode="&#x3c6;" horiz-adv-x="725" 
d="M297 500h97q143 0 221 -67t78 -186q0 -106 -67 -171.5t-192 -81.5v-184h-137v184q-122 14 -188.5 82t-66.5 180q0 49 10 111.5t30 132.5h137q-20 -66 -30 -128.5t-10 -114.5q0 -60 29 -94.5t89 -45.5v383zM556 247q0 57 -35 94t-87 37v-260q61 11 91.5 43.5t30.5 85.5z
" />
    <glyph glyph-name="chi" unicode="&#x3c7;" horiz-adv-x="568" 
d="M233 419l71 -123l127 204h137l-198 -319l112 -195q17 -30 31 -40t35 -10h25v-126h-27q-68 0 -105 18t-63 63l-95 166l-154 -247h-137l225 362l-88 152q-17 30 -31 40t-35 10h-45v126h47q68 0 105 -18t63 -63z" />
    <glyph glyph-name="psi" unicode="&#x3c8;" horiz-adv-x="728" 
d="M297 119v571h137v-572q59 12 87 50.5t28 105.5q0 48 -9.5 102t-30.5 124h137q21 -75 30.5 -129.5t9.5 -100.5q0 -119 -65 -190t-187 -86v-184h-137v184q-121 15 -184 81t-63 177v248h137v-233q0 -63 27 -99.5t83 -48.5z" />
    <glyph glyph-name="omega" unicode="&#x3c9;" horiz-adv-x="827" 
d="M414 77q-23 -42 -63.5 -64.5t-94.5 -22.5q-97 0 -153.5 70.5t-56.5 195.5q0 49 10 111.5t30 132.5h137q-20 -66 -30 -128.5t-10 -114.5q0 -74 20 -109.5t61 -35.5q38 0 59.5 27.5t21.5 77.5v143h137v-143q0 -50 21.5 -77.5t59.5 -27.5q41 0 61 35.5t20 109.5
q0 52 -10 114.5t-30 128.5h137q20 -70 30 -132.5t10 -111.5q0 -125 -56.5 -195.5t-153.5 -70.5q-54 0 -94 22.5t-63 64.5z" />
    <glyph glyph-name="iotadieresis" unicode="&#x3ca;" horiz-adv-x="287" 
d="M59 166v334h137v-323q0 -27 11.5 -39t37.5 -12h23v-126h-27q-96 0 -139 39.5t-43 126.5zM-24 568v122h122v-122h-122zM156 568v122h122v-122h-122z" />
    <glyph glyph-name="upsilondieresis" unicode="&#x3cb;" horiz-adv-x="575" 
d="M530 256q0 -127 -63 -196.5t-175 -69.5q-109 0 -173.5 57.5t-64.5 154.5v298h137v-283q0 -50 26.5 -77.5t74.5 -27.5q51 0 76 36t25 109q0 52 -10 114.5t-30 128.5h137q20 -70 30 -132.5t10 -111.5zM126 568v122h122v-122h-122zM306 568v122h122v-122h-122z" />
    <glyph glyph-name="omicrontonos" unicode="&#x3cc;" horiz-adv-x="603" 
d="M301 510q118 0 193.5 -72.5t75.5 -187.5t-75.5 -187.5t-193.5 -72.5t-193 72.5t-75 187.5t75 187.5t193 72.5zM301 112q58 0 94.5 38t36.5 100t-36.5 100.5t-94.5 38.5t-94 -38.5t-36 -100.5t36 -100t94 -38zM244 540l100 150h140l-124 -150h-116z" />
    <glyph glyph-name="upsilontonos" unicode="&#x3cd;" horiz-adv-x="575" 
d="M530 256q0 -127 -63 -196.5t-175 -69.5q-109 0 -173.5 57.5t-64.5 154.5v298h137v-283q0 -50 26.5 -77.5t74.5 -27.5q51 0 76 36t25 109q0 52 -10 114.5t-30 128.5h137q20 -70 30 -132.5t10 -111.5zM219 540l100 150h140l-124 -150h-116z" />
    <glyph glyph-name="omegatonos" unicode="&#x3ce;" horiz-adv-x="827" 
d="M414 77q-23 -42 -63.5 -64.5t-94.5 -22.5q-97 0 -153.5 70.5t-56.5 195.5q0 49 10 111.5t30 132.5h137q-20 -66 -30 -128.5t-10 -114.5q0 -74 20 -109.5t61 -35.5q38 0 59.5 27.5t21.5 77.5v143h137v-143q0 -50 21.5 -77.5t59.5 -27.5q41 0 61 35.5t20 109.5
q0 52 -10 114.5t-30 128.5h137q20 -70 30 -132.5t10 -111.5q0 -125 -56.5 -195.5t-153.5 -70.5q-54 0 -94 22.5t-63 64.5zM333 540l100 150h140l-124 -150h-116z" />
    <glyph glyph-name="Kaisymbol" unicode="&#x3cf;" horiz-adv-x="677" 
d="M661 0l-173 -200l-99 89l99 111l-204 265h-69v-265h-140v640h140v-252h64l213 252h162v-4l-256 -299l263 -332v-5z" />
    <glyph glyph-name="uni03D5" unicode="&#x3d5;" horiz-adv-x="731" 
d="M297 510v180h137v-180q116 -2 190 -74t74 -186t-74.5 -187t-189.5 -73v-180h-137v180q-116 2 -190 74t-74 186t74.5 187t189.5 73zM171 250q0 -62 36 -100t94 -38h4v277h-4q-58 0 -94 -38.5t-36 -100.5zM426 112h4q58 0 94 38t36 100t-36 100.5t-94 38.5h-4v-277z" />
    <glyph glyph-name="kaisymbol" unicode="&#x3d7;" horiz-adv-x="590" 
d="M571 0l-173 -200l-94 89l103 116l-142 190h-61v-195h-137v500h137v-189h66l92 119q30 41 61.5 55.5t88.5 14.5h39v-126h-49q-16 0 -26 -4.5t-19 -15.5l-76 -96l190 -253v-5z" />
    <glyph glyph-name="uni0400" unicode="&#x400;" horiz-adv-x="583" 
d="M75 0v640h461v-127h-321v-129h291v-122h-291v-135h321v-127h-461zM158 845h140l100 -150h-116z" />
    <glyph glyph-name="afii10023" unicode="&#x401;" horiz-adv-x="583" 
d="M75 0v640h461v-127h-321v-129h291v-122h-291v-135h321v-127h-461zM157 724v122h122v-122h-122zM337 724v122h122v-122h-122z" />
    <glyph glyph-name="afii10051" unicode="&#x402;" horiz-adv-x="788" 
d="M243 511h-221v129h581v-129h-220v-161q29 25 68.5 38t85.5 13q98 0 159.5 -56.5t61.5 -148.5q0 -89 -59 -142.5t-155 -53.5h-31v121h22q38 0 60.5 20t22.5 55q0 38 -30.5 61t-80.5 23q-56 0 -90 -29.5t-34 -79.5v-171h-140v511z" />
    <glyph glyph-name="afii10052" unicode="&#x403;" horiz-adv-x="533" 
d="M75 0v640h436v-127h-296v-513h-140zM259 695l100 150h140l-124 -150h-116z" />
    <glyph glyph-name="afii10053" unicode="&#x404;" horiz-adv-x="726" 
d="M460 389v-124h-278q15 -68 64.5 -107t119.5 -39t118 38t64 107h146q-18 -122 -109 -198t-219 -76q-142 0 -235.5 94t-93.5 236q0 141 94 235.5t235 94.5q127 0 218 -76t110 -198h-146q-17 69 -65 107.5t-117 38.5q-67 0 -115 -35.5t-66 -97.5h275z" />
    <glyph glyph-name="afii10054" unicode="&#x405;" horiz-adv-x="598" 
d="M311 114q47 0 75 17.5t28 48.5q0 29 -23.5 45t-78.5 25l-56 8q-102 17 -157 67.5t-55 126.5q0 90 67 144t178 54q113 0 183.5 -56t70.5 -148h-143q0 38 -29.5 59.5t-80.5 21.5q-47 0 -75 -17.5t-28 -48.5q0 -28 25.5 -43.5t97.5 -26.5l56 -9q95 -15 144.5 -63t49.5 -125
q0 -94 -67.5 -149t-183.5 -55q-119 0 -194 59.5t-75 151.5h147q0 -38 35 -62.5t89 -24.5z" />
    <glyph glyph-name="afii10055" unicode="&#x406;" horiz-adv-x="290" 
d="M75 0v640h140v-640h-140z" />
    <glyph glyph-name="afii10056" unicode="&#x407;" horiz-adv-x="290" 
d="M14 718v122h112v-122h-112zM164 718v122h112v-122h-112zM75 0v640h140v-640h-140z" />
    <glyph glyph-name="afii10057" unicode="&#x408;" horiz-adv-x="407" 
d="M201 214v426h140v-438q0 -98 -54.5 -150t-158.5 -52h-105v126h78q55 0 77.5 19.5t22.5 68.5z" />
    <glyph glyph-name="afii10058" unicode="&#x409;" horiz-adv-x="1040" 
d="M108 213l33 427h489v-224h136q116 0 179.5 -54t63.5 -154q0 -99 -63.5 -153.5t-179.5 -54.5h-276v513h-222l-25 -308q-11 -115 -52.5 -160t-135.5 -45h-32v127h18q32 0 47 18.5t20 67.5zM867 208q0 44 -26.5 68t-76.5 24h-134v-184h134q49 0 76 24t27 68z" />
    <glyph glyph-name="afii10059" unicode="&#x40a;" horiz-adv-x="1057" 
d="M75 0v640h140v-251h293v251h140v-254h151q109 0 168.5 -50.5t59.5 -142.5t-59.5 -142.5t-168.5 -50.5h-291v265h-293v-265h-140zM885 193q0 37 -23 57t-65 20h-149v-154h149q42 0 65 20t23 57z" />
    <glyph glyph-name="afii10060" unicode="&#x40b;" horiz-adv-x="778" 
d="M491 280q-50 0 -79 -29t-29 -80v-171h-140v511h-221v129h581v-129h-220v-158q27 23 62 35.5t75 12.5q97 0 157.5 -57.5t60.5 -151.5v-192h-140v171q0 50 -29 79.5t-78 29.5z" />
    <glyph glyph-name="afii10061" unicode="&#x40c;" horiz-adv-x="677" 
d="M290 695l100 150h140l-124 -150h-116zM75 0v640h140v-252h64l213 252h162v-4l-256 -299l263 -332v-5h-173l-204 265h-69v-265h-140z" />
    <glyph glyph-name="uni040D" unicode="&#x40d;" horiz-adv-x="743" 
d="M75 640h140v-452l293 452h160v-640h-140v451l-293 -451h-160v640zM195 845h140l100 -150h-116z" />
    <glyph glyph-name="afii10062" unicode="&#x40e;" horiz-adv-x="684" 
d="M676 640l-358 -640h-150l108 194l-269 446h165l181 -308l173 308h150zM348 694q-75 0 -117.5 39.5t-42.5 110.5h106q0 -35 13.5 -52t40.5 -17t40.5 17t13.5 52h106q0 -71 -42.5 -110.5t-117.5 -39.5z" />
    <glyph glyph-name="afii10145" unicode="&#x40f;" horiz-adv-x="703" 
d="M422 -160h-140v160h-207v640h140v-513h273v513h140v-640h-206v-160z" />
    <glyph glyph-name="afii10017" unicode="&#x410;" horiz-adv-x="721" 
d="M288 640h145l272 -640h-152l-56 136h-279l-56 -136h-146zM358 476l-89 -215h177z" />
    <glyph glyph-name="afii10018" unicode="&#x411;" horiz-adv-x="624" 
d="M594 198q0 -94 -62 -146t-175 -52h-282v640h453v-116h-313v-128h142q113 0 175 -52t62 -146zM452 198q0 39 -25.5 60.5t-71.5 21.5h-140v-164h140q46 0 71.5 21.5t25.5 60.5z" />
    <glyph glyph-name="afii10019" unicode="&#x412;" horiz-adv-x="634" 
d="M75 0v640h273q105 0 165.5 -46t60.5 -126q0 -47 -20 -81.5t-60 -55.5q50 -21 75 -59.5t25 -92.5q0 -85 -59.5 -132t-167.5 -47h-292zM432 452q0 34 -24.5 53t-68.5 19h-124v-144h124q44 0 68.5 19t24.5 53zM452 193q0 37 -25.5 57.5t-71.5 20.5h-140v-155h140
q46 0 71.5 20t25.5 57z" />
    <glyph glyph-name="afii10020" unicode="&#x413;" horiz-adv-x="533" 
d="M75 0v640h436v-127h-296v-513h-140z" />
    <glyph glyph-name="afii10021" unicode="&#x414;" horiz-adv-x="717" 
d="M163 -160h-140v287h62q13 19 21.5 48.5t12.5 69.5l38 395h469v-513h65v-287h-140v160h-388v-160zM281 513l-25 -259q-3 -37 -10 -68.5t-18 -58.5h258v386h-205z" />
    <glyph glyph-name="afii10022" unicode="&#x415;" horiz-adv-x="583" 
d="M75 0v640h461v-127h-321v-129h291v-122h-291v-135h321v-127h-461z" />
    <glyph glyph-name="afii10024" unicode="&#x416;" horiz-adv-x="945" 
d="M401 388v252h140v-252h54l169 252h156v-4l-207 -300l214 -331v-5h-168l-164 265h-54v-265h-140v265h-52l-166 -265h-166v5l216 326l-209 305v4h155l169 -252h53z" />
    <glyph glyph-name="afii10025" unicode="&#x417;" horiz-adv-x="609" 
d="M466 328q50 -22 76.5 -60.5t26.5 -89.5q0 -81 -75.5 -134.5t-191.5 -53.5t-190 59t-81 158h139q6 -50 39 -75t91 -25t91.5 21.5t33.5 58.5q0 43 -28.5 63t-88.5 20h-108v110h99q55 0 83 18.5t28 55.5q0 38 -30 58.5t-85 20.5t-88 -27t-34 -73h-139q7 99 78 158t184 59
q117 0 187.5 -51.5t70.5 -137.5q0 -43 -23 -77.5t-65 -55.5z" />
    <glyph glyph-name="afii10026" unicode="&#x418;" horiz-adv-x="743" 
d="M75 640h140v-452l293 452h160v-640h-140v451l-293 -451h-160v640z" />
    <glyph glyph-name="afii10027" unicode="&#x419;" horiz-adv-x="743" 
d="M75 640h140v-452l293 452h160v-640h-140v451l-293 -451h-160v640zM375 694q-75 0 -117.5 39.5t-42.5 110.5h106q0 -35 13.5 -52t40.5 -17t40.5 17t13.5 52h106q0 -71 -42.5 -110.5t-117.5 -39.5z" />
    <glyph glyph-name="afii10028" unicode="&#x41a;" horiz-adv-x="677" 
d="M75 0v640h140v-252h64l213 252h162v-4l-256 -299l263 -332v-5h-173l-204 265h-69v-265h-140z" />
    <glyph glyph-name="afii10029" unicode="&#x41b;" horiz-adv-x="705" 
d="M108 213l33 427h489v-640h-140v513h-222l-25 -308q-11 -115 -52.5 -160t-135.5 -45h-32v127h18q32 0 47 18.5t20 67.5z" />
    <glyph glyph-name="afii10030" unicode="&#x41c;" horiz-adv-x="847" 
d="M489 53h-137l-132 367l-38 -420h-135l57 640h178l144 -413l143 413h173l58 -640h-142l-39 432z" />
    <glyph glyph-name="afii10031" unicode="&#x41d;" horiz-adv-x="723" 
d="M75 0v640h140v-251h293v251h140v-640h-140v265h-293v-265h-140z" />
    <glyph glyph-name="afii10032" unicode="&#x41e;" horiz-adv-x="744" 
d="M372 650q144 0 239.5 -94t95.5 -236q0 -143 -95 -236.5t-240 -93.5t-240 93.5t-95 236.5q0 142 95.5 236t239.5 94zM372 119q86 0 138.5 55t52.5 146t-53 146.5t-138 55.5q-86 0 -139 -55.5t-53 -146.5q0 -90 53 -145.5t139 -55.5z" />
    <glyph glyph-name="afii10033" unicode="&#x41f;" horiz-adv-x="723" 
d="M75 0v640h573v-640h-140v513h-293v-513h-140z" />
    <glyph glyph-name="afii10034" unicode="&#x420;" horiz-adv-x="633" 
d="M75 0v640h268q122 0 190 -58t68 -162q0 -105 -67.5 -162.5t-190.5 -57.5h-128v-200h-140zM459 420q0 47 -28.5 71.5t-83.5 24.5h-132v-192h132q55 0 83.5 24.5t28.5 71.5z" />
    <glyph glyph-name="afii10035" unicode="&#x421;" horiz-adv-x="726" 
d="M548 264h146q-18 -122 -108.5 -198t-217.5 -76q-142 0 -236.5 94t-94.5 236q0 141 94.5 235.5t236.5 94.5q126 0 216.5 -76t109.5 -198h-146q-17 69 -64.5 107.5t-115.5 38.5q-84 0 -136 -55.5t-52 -146.5t52 -146t136 -55q69 0 116.5 38t63.5 107z" />
    <glyph glyph-name="afii10036" unicode="&#x422;" horiz-adv-x="625" 
d="M243 511h-221v129h581v-129h-220v-511h-140v511z" />
    <glyph glyph-name="afii10037" unicode="&#x423;" horiz-adv-x="684" 
d="M676 640l-358 -640h-150l108 194l-269 446h165l181 -308l173 308h150z" />
    <glyph glyph-name="afii10038" unicode="&#x424;" horiz-adv-x="829" 
d="M344 588v52h140v-52q142 -1 226.5 -73t84.5 -195t-85 -195.5t-226 -72.5v-52h-140v52q-141 2 -225.5 74t-84.5 194q0 123 85 195.5t225 72.5zM177 320q0 -67 45 -103t127 -36v279q-82 0 -127 -36.5t-45 -103.5zM479 181h1q82 0 126.5 36t44.5 103q0 68 -44.5 104
t-126.5 36h-1v-279z" />
    <glyph glyph-name="afii10039" unicode="&#x425;" horiz-adv-x="669" 
d="M174 0h-158l230 331l-219 309h173l141 -199l134 199h158l-213 -310l234 -330h-173l-156 219z" />
    <glyph glyph-name="afii10040" unicode="&#x426;" horiz-adv-x="719" 
d="M693 -160h-140v160h-478v640h140v-513h273v513h140v-513h65v-287z" />
    <glyph glyph-name="afii10041" unicode="&#x427;" horiz-adv-x="670" 
d="M296 200q-124 0 -189 59.5t-65 173.5v207h140v-196q0 -60 33.5 -87.5t104.5 -27.5q31 0 65.5 5t69.5 15v291h140v-640h-140v222q-39 -11 -80 -16.5t-79 -5.5z" />
    <glyph glyph-name="afii10042" unicode="&#x428;" horiz-adv-x="996" 
d="M428 127v513h140v-513h213v513h140v-640h-846v640h140v-513h213z" />
    <glyph glyph-name="afii10043" unicode="&#x429;" horiz-adv-x="1012" 
d="M428 127v513h140v-513h213v513h140v-513h65v-287h-140v160h-771v640h140v-513h213z" />
    <glyph glyph-name="afii10044" unicode="&#x42a;" horiz-adv-x="692" 
d="M661 208q0 -99 -64.5 -153.5t-182.5 -54.5h-272v524h-121v116h261v-224h132q118 0 182.5 -54.5t64.5 -153.5zM519 208q0 44 -28 68t-79 24h-130v-184h130q51 0 79 24t28 68z" />
    <glyph glyph-name="afii10045" unicode="&#x42b;" horiz-adv-x="864" 
d="M649 0v640h140v-640h-140zM594 208q0 -99 -63.5 -153.5t-179.5 -54.5h-276v640h140v-224h136q116 0 179.5 -54t63.5 -154zM452 208q0 44 -26.5 68t-76.5 24h-134v-184h134q49 0 76 24t27 68z" />
    <glyph glyph-name="afii10046" unicode="&#x42c;" horiz-adv-x="625" 
d="M594 208q0 -99 -63.5 -153.5t-179.5 -54.5h-276v640h140v-224h136q116 0 179.5 -54t63.5 -154zM452 208q0 44 -26.5 68t-76.5 24h-134v-184h134q49 0 76 24t27 68z" />
    <glyph glyph-name="afii10047" unicode="&#x42d;" horiz-adv-x="726" 
d="M360 -10q-128 0 -219 76t-109 198h146q16 -69 64 -107t118 -38t119.5 39t64.5 107h-278v124h275q-18 62 -66 97.5t-115 35.5q-69 0 -117 -38.5t-65 -107.5h-146q19 122 110 198t218 76q141 0 235 -94.5t94 -235.5q0 -142 -93.5 -236t-235.5 -94z" />
    <glyph glyph-name="afii10048" unicode="&#x42e;" horiz-adv-x="1004" 
d="M75 0v640h140v-251h89q23 117 113 189t215 72q144 0 239.5 -94t95.5 -236q0 -143 -95 -236.5t-240 -93.5q-129 0 -220.5 76.5t-110.5 198.5h-86v-265h-140zM632 119q86 0 138.5 55t52.5 146t-53 146.5t-138 55.5q-86 0 -139 -55.5t-53 -146.5q0 -90 53 -145.5t139 -55.5z
" />
    <glyph glyph-name="afii10049" unicode="&#x42f;" horiz-adv-x="649" 
d="M293 209l-108 -209h-150l127 233q-58 26 -88.5 75t-30.5 116q0 102 65.5 159t181.5 57h284v-640h-140v209h-141zM185 422q0 -44 26.5 -68.5t74.5 -24.5h148v187h-148q-48 0 -74.5 -24.5t-26.5 -69.5z" />
    <glyph glyph-name="afii10065" unicode="&#x430;" horiz-adv-x="623" 
d="M556 500v-500h-97l-26 51q-30 -30 -69 -45.5t-84 -15.5q-104 0 -175.5 74t-71.5 186t71.5 186t175.5 74q45 0 84 -15.5t69 -45.5l26 51h97zM300 112q57 0 93 38t36 100t-36 100.5t-93 38.5t-93 -38.5t-36 -100.5t36 -100t93 -38z" />
    <glyph glyph-name="afii10066" unicode="&#x431;" horiz-adv-x="609" 
d="M50 247v198q0 121 72.5 183t214.5 62h196l-30 -113h-163q-81 0 -119.5 -32.5t-38.5 -101.5v-39q27 35 69 53.5t92 18.5q102 0 168 -68t66 -174q0 -108 -73 -176t-191 -68q-121 0 -192 70.5t-71 186.5zM313 355q-57 0 -91.5 -33t-34.5 -89t34 -88.5t92 -32.5t92 32.5
t34 88.5t-34.5 89t-91.5 33z" />
    <glyph glyph-name="afii10067" unicode="&#x432;" horiz-adv-x="578" 
d="M67 0v500h268q87 0 138 -36.5t51 -99.5q0 -35 -15 -61t-46 -43q39 -17 59 -46.5t20 -70.5q0 -68 -50 -105.5t-140 -37.5h-285zM388 351q0 23 -16 36t-45 13h-126v-97h126q29 0 45 13t16 35zM406 154q0 25 -17 38.5t-48 13.5h-140v-105h140q31 0 48 13.5t17 39.5z" />
    <glyph glyph-name="afii10068" unicode="&#x433;" horiz-adv-x="434" 
d="M67 0v500h360l-38 -114h-185v-386h-137z" />
    <glyph glyph-name="afii10069" unicode="&#x434;" horiz-adv-x="606" 
d="M151 -150h-132v264h38q13 21 19.5 49t8.5 72l14 265h422v-386h61v-264h-132v150h-299v-150zM220 386l-10 -156q-2 -38 -7.5 -66.5t-14.5 -49.5h196v272h-164z" />
    <glyph glyph-name="afii10070" unicode="&#x435;" horiz-adv-x="575" 
d="M400 168h136q-13 -80 -78.5 -129t-160.5 -49q-116 0 -189.5 72.5t-73.5 187.5q0 116 71.5 188t185.5 72q112 0 180.5 -71t68.5 -187q0 -7 -0.5 -16.5t-1.5 -23.5h-369q8 -52 41.5 -79.5t86.5 -27.5q40 0 67 16.5t36 46.5zM287 398q-47 0 -76 -23.5t-40 -70.5h234
q-7 44 -39 69t-79 25z" />
    <glyph glyph-name="afii10072" unicode="&#x436;" horiz-adv-x="833" 
d="M347 311l1 189h137v-189h49l127 189h150v-5l-159 -237l170 -253v-5h-161l-129 195h-47v-195h-140l1 195h-48l-129 -195h-158v5l173 252l-162 238v5h150l124 -189h51z" />
    <glyph glyph-name="afii10073" unicode="&#x437;" horiz-adv-x="545" 
d="M419 257q45 -18 68.5 -48.5t23.5 -70.5q0 -66 -64 -107t-167 -41q-112 0 -180 47.5t-74 129.5h139q7 -35 35 -51.5t79 -16.5q46 0 71 13.5t25 37.5q0 26 -22.5 40.5t-61.5 14.5h-100v97h89q35 0 55.5 13t20.5 36t-23 36.5t-62 13.5q-46 0 -71 -16t-32 -50h-139
q6 82 71 128.5t172 46.5q102 0 162 -40t60 -109q0 -33 -19 -59.5t-56 -44.5z" />
    <glyph glyph-name="afii10074" unicode="&#x438;" horiz-adv-x="617" 
d="M67 0v500h137v-334l187 334h159v-500h-137v334l-187 -334h-159z" />
    <glyph glyph-name="afii10075" unicode="&#x439;" horiz-adv-x="617" 
d="M67 0v500h137v-334l187 334h159v-500h-137v334l-187 -334h-159zM308 540q-75 0 -117.5 39.5t-42.5 110.5h106q0 -35 13.5 -52t40.5 -17t40.5 17t13.5 52h106q0 -71 -42.5 -110.5t-117.5 -39.5z" />
    <glyph glyph-name="afii10076" unicode="&#x43a;" horiz-adv-x="581" 
d="M67 0v500h137v-189h64l142 189h150v-5l-179 -237l190 -253v-5h-161l-145 195h-61v-195h-137z" />
    <glyph glyph-name="afii10077" unicode="&#x43b;" horiz-adv-x="592" 
d="M53 0h-33v123h11q25 0 36.5 9.5t13.5 30.5l19 337h425v-500h-137v386h-167l-15 -232q-5 -80 -42 -117t-111 -37z" />
    <glyph glyph-name="afii10078" unicode="&#x43c;" horiz-adv-x="714" 
d="M415 41h-121l-100 265l-32 -306h-119l49 500h153l113 -308l113 308h150l50 -500h-125l-32 313z" />
    <glyph glyph-name="afii10079" unicode="&#x43d;" horiz-adv-x="617" 
d="M67 0v500h137v-181h209v181h137v-500h-137v205h-209v-205h-137z" />
    <glyph glyph-name="afii10080" unicode="&#x43e;" horiz-adv-x="603" 
d="M301 510q118 0 193.5 -72.5t75.5 -187.5t-75.5 -187.5t-193.5 -72.5t-193 72.5t-75 187.5t75 187.5t193 72.5zM301 112q58 0 94.5 38t36.5 100t-36.5 100.5t-94.5 38.5t-94 -38.5t-36 -100.5t36 -100t94 -38z" />
    <glyph glyph-name="afii10081" unicode="&#x43f;" horiz-adv-x="617" 
d="M67 0v500h483v-500h-137v386h-209v-386h-137z" />
    <glyph glyph-name="afii10082" unicode="&#x440;" horiz-adv-x="623" 
d="M67 -190v690h97l25 -51q30 30 69 45.5t84 15.5q105 0 176.5 -74t71.5 -186t-71.5 -186t-176.5 -74q-40 0 -75.5 13t-62.5 38v-231h-137zM323 389q-57 0 -93 -38.5t-36 -100.5t36 -100t93 -38t93 38t36 100t-36 100.5t-93 38.5z" />
    <glyph glyph-name="afii10083" unicode="&#x441;" horiz-adv-x="583" 
d="M412 210h140q-13 -100 -83.5 -160t-174.5 -60q-114 0 -187.5 72.5t-73.5 187.5t73.5 187.5t187.5 72.5q104 0 174.5 -60t83.5 -160h-140q-11 46 -42.5 72.5t-75.5 26.5q-54 0 -88.5 -38.5t-34.5 -100.5t34 -100t89 -38q44 0 75.5 26t42.5 72z" />
    <glyph glyph-name="afii10084" unicode="&#x442;" horiz-adv-x="505" 
d="M184 386h-168v114h473v-114h-168v-386h-137v386z" />
    <glyph glyph-name="afii10085" unicode="&#x443;" horiz-adv-x="564" 
d="M239 -4l1 4h-42l-191 500h142l137 -372l133 372h137l-197 -540q-28 -81 -74.5 -115.5t-135.5 -34.5h-79v121h71q45 0 65 13.5t33 51.5z" />
    <glyph glyph-name="afii10086" unicode="&#x444;" horiz-adv-x="731" 
d="M297 510v180h137v-180q116 -2 190 -74t74 -186t-74.5 -187t-189.5 -73v-180h-137v180q-116 2 -190 74t-74 186t74.5 187t189.5 73zM171 250q0 -62 36 -100t94 -38h4v277h-4q-58 0 -94 -38.5t-36 -100.5zM426 112h4q58 0 94 38t36 100t-36 100.5t-94 38.5h-4v-277z" />
    <glyph glyph-name="afii10087" unicode="&#x445;" horiz-adv-x="573" 
d="M161 0h-153l198 258l-183 242h163l108 -143l107 143h153l-185 -242l195 -258h-163l-121 160z" />
    <glyph glyph-name="afii10088" unicode="&#x446;" horiz-adv-x="625" 
d="M601 -150h-132v150h-402v500h137v-386h199v386h137v-386h61v-264z" />
    <glyph glyph-name="afii10089" unicode="&#x447;" horiz-adv-x="577" 
d="M282 251q25 0 47.5 4t43.5 13v232h137v-500h-137v154q-27 -12 -59 -18t-65 -6q-99 0 -155.5 51t-56.5 142v177h137v-156q0 -51 25 -72t83 -21z" />
    <glyph glyph-name="afii10090" unicode="&#x448;" horiz-adv-x="879" 
d="M812 500v-500h-745v500h137v-386h167v386h137v-386h167v386h137z" />
    <glyph glyph-name="afii10091" unicode="&#x449;" horiz-adv-x="897" 
d="M873 -150h-132v150h-674v500h137v-386h167v386h137v-386h167v386h137v-386h61v-264z" />
    <glyph glyph-name="afii10092" unicode="&#x44a;" horiz-adv-x="647" 
d="M147 386h-131v114h268v-152h133q94 0 149.5 -47.5t55.5 -126.5t-55.5 -126.5t-149.5 -47.5h-270v386zM486 174q0 30 -18 46.5t-52 16.5h-132v-126h132q34 0 52 16.5t18 46.5z" />
    <glyph glyph-name="afii10093" unicode="&#x44b;" horiz-adv-x="791" 
d="M67 0v500h137v-152h133q94 0 149.5 -47.5t55.5 -126.5t-55.5 -126.5t-149.5 -47.5h-270zM587 0v500h137v-500h-137zM406 174q0 30 -18 46.5t-52 16.5h-132v-126h132q34 0 52 16.5t18 46.5z" />
    <glyph glyph-name="afii10094" unicode="&#x44c;" horiz-adv-x="567" 
d="M67 0v500h137v-152h133q94 0 149.5 -47.5t55.5 -126.5t-55.5 -126.5t-149.5 -47.5h-270zM406 174q0 30 -18 46.5t-52 16.5h-132v-126h132q34 0 52 16.5t18 46.5z" />
    <glyph glyph-name="afii10095" unicode="&#x44d;" horiz-adv-x="583" 
d="M165 290h-134q13 100 83.5 160t174.5 60q114 0 187.5 -72.5t73.5 -187.5t-73.5 -187.5t-187.5 -72.5q-104 0 -174.5 60t-83.5 160h134q11 -45 45.5 -72t81.5 -27q44 0 76 24.5t44 67.5h-182v94h182q-12 43 -44 67t-76 24q-47 0 -81.5 -26.5t-45.5 -71.5z" />
    <glyph glyph-name="afii10096" unicode="&#x44e;" horiz-adv-x="833" 
d="M67 0v500h137v-191h65q19 92 90 146.5t172 54.5q118 0 193.5 -72.5t75.5 -187.5t-75.5 -187.5t-193.5 -72.5q-102 0 -173.5 56t-89.5 149h-64v-195h-137zM531 112q58 0 94.5 38t36.5 100t-36.5 100.5t-94.5 38.5t-94 -38.5t-36 -100.5t36 -100t94 -38z" />
    <glyph glyph-name="afii10097" unicode="&#x44f;" horiz-adv-x="577" 
d="M260 149l-83 -149h-145l100 172q-47 22 -71.5 61t-24.5 91q0 83 57.5 129.5t159.5 46.5h257v-500h-135v149h-115zM175 323q0 -31 20 -48t55 -17h125v130h-125q-36 0 -55.5 -17t-19.5 -48z" />
    <glyph glyph-name="uni0450" unicode="&#x450;" horiz-adv-x="575" 
d="M400 168h136q-13 -80 -78.5 -129t-160.5 -49q-116 0 -189.5 72.5t-73.5 187.5q0 116 71.5 188t185.5 72q112 0 180.5 -71t68.5 -187q0 -7 -0.5 -16.5t-1.5 -23.5h-369q8 -52 41.5 -79.5t86.5 -27.5q40 0 67 16.5t36 46.5zM287 398q-47 0 -76 -23.5t-40 -70.5h234
q-7 44 -39 69t-79 25zM109 690h140l100 -150h-116z" />
    <glyph glyph-name="afii10071" unicode="&#x451;" horiz-adv-x="575" 
d="M400 168h136q-13 -80 -78.5 -129t-160.5 -49q-116 0 -189.5 72.5t-73.5 187.5q0 116 71.5 188t185.5 72q112 0 180.5 -71t68.5 -187q0 -7 -0.5 -16.5t-1.5 -23.5h-369q8 -52 41.5 -79.5t86.5 -27.5q40 0 67 16.5t36 46.5zM287 398q-47 0 -76 -23.5t-40 -70.5h234
q-7 44 -39 69t-79 25zM140 568v122h122v-122h-122zM320 568v122h122v-122h-122z" />
    <glyph glyph-name="afii10099" unicode="&#x452;" horiz-adv-x="611" 
d="M325 309q-49 0 -77 -29t-28 -80v-200h-137v500h-83v114h83v76h137v-76h154v-114h-154v-117q26 23 60.5 35t73.5 12q94 0 153 -57.5t59 -151.5v-238q0 -89 -44.5 -131t-141.5 -42h-73v122h48q38 0 56 13t18 40v215q0 50 -28.5 79.5t-75.5 29.5z" />
    <glyph glyph-name="afii10100" unicode="&#x453;" horiz-adv-x="434" 
d="M67 0v500h360l-38 -114h-185v-386h-137zM192 540l100 150h140l-124 -150h-116z" />
    <glyph glyph-name="afii10101" unicode="&#x454;" horiz-adv-x="583" 
d="M418 210h134q-13 -100 -83.5 -160t-174.5 -60q-114 0 -187.5 72.5t-73.5 187.5t73.5 187.5t187.5 72.5q104 0 174.5 -60t83.5 -160h-134q-11 45 -45.5 72t-81.5 27q-44 0 -76 -24.5t-44 -67.5h182v-94h-182q12 -43 44 -67t76 -24q47 0 81.5 26.5t45.5 71.5z" />
    <glyph glyph-name="afii10102" unicode="&#x455;" horiz-adv-x="509" 
d="M265 96q36 0 55 11.5t19 33.5q0 20 -18 30.5t-61 16.5l-49 7q-84 13 -126.5 51.5t-42.5 102.5q0 74 55 117.5t148 43.5q96 0 157 -45.5t61 -116.5h-128q0 26 -24 41.5t-66 15.5q-34 0 -52 -11.5t-18 -32.5q0 -20 18.5 -31t59.5 -18l49 -7q88 -13 130 -49t42 -98
q0 -76 -57.5 -122t-151.5 -46q-100 0 -165 50t-65 126h132q0 -31 27 -50.5t71 -19.5z" />
    <glyph glyph-name="afii10103" unicode="&#x456;" horiz-adv-x="271" 
d="M67 558v132h137v-132h-137zM67 0v500h137v-500h-137z" />
    <glyph glyph-name="afii10104" unicode="&#x457;" horiz-adv-x="271" 
d="M15 568v122h107v-122h-107zM150 568v122h107v-122h-107zM67 0v500h137v-500h-137z" />
    <glyph glyph-name="afii10105" unicode="&#x458;" horiz-adv-x="271" 
d="M67 558v132h137v-132h-137zM67 -15v515h137v-517q0 -89 -44.5 -131t-141.5 -42h-73v122h48q38 0 56 13t18 40z" />
    <glyph glyph-name="afii10106" unicode="&#x459;" horiz-adv-x="888" 
d="M53 0h-33v123h11q25 0 36.5 9.5t13.5 30.5l19 337h425v-152h133q94 0 149.5 -47.5t55.5 -126.5t-55.5 -126.5t-149.5 -47.5h-270v386h-167l-15 -232q-5 -80 -42 -117t-111 -37zM727 174q0 30 -18 46.5t-52 16.5h-132v-126h132q34 0 52 16.5t18 46.5z" />
    <glyph glyph-name="afii10107" unicode="&#x45a;" horiz-adv-x="892" 
d="M67 0v500h137v-172h199v172h137v-172h126q93 0 147.5 -44.5t54.5 -119.5t-54.5 -119.5t-147.5 -44.5h-263v214h-199v-214h-137zM732 164q0 25 -17.5 39t-49.5 14h-125v-106h125q32 0 49.5 13.5t17.5 39.5z" />
    <glyph glyph-name="afii10108" unicode="&#x45b;" horiz-adv-x="611" 
d="M325 309q-49 0 -77 -29t-28 -80v-200h-137v500h-83v114h83v76h137v-76h154v-114h-154v-117q26 23 60.5 35t73.5 12q94 0 153 -57.5t59 -151.5v-221h-137v200q0 50 -28.5 79.5t-75.5 29.5z" />
    <glyph glyph-name="afii10109" unicode="&#x45c;" horiz-adv-x="581" 
d="M67 0v500h137v-189h64l142 189h150v-5l-179 -237l190 -253v-5h-161l-145 195h-61v-195h-137zM244 540l100 150h140l-124 -150h-116z" />
    <glyph glyph-name="uni045D" unicode="&#x45d;" horiz-adv-x="617" 
d="M67 0v500h137v-334l187 334h159v-500h-137v334l-187 -334h-159zM145 690h140l100 -150h-116z" />
    <glyph glyph-name="afii10110" unicode="&#x45e;" horiz-adv-x="564" 
d="M239 -4l1 4h-42l-191 500h142l137 -372l133 372h137l-197 -540q-28 -81 -74.5 -115.5t-135.5 -34.5h-79v121h71q45 0 65 13.5t33 51.5zM278 540q-75 0 -117.5 39.5t-42.5 110.5h106q0 -35 13.5 -52t40.5 -17t40.5 17t13.5 52h106q0 -71 -42.5 -110.5t-117.5 -39.5z" />
    <glyph glyph-name="afii10193" unicode="&#x45f;" horiz-adv-x="607" 
d="M370 -150h-132v150h-171v500h137v-386h199v386h137v-500h-170v-150z" />
    <glyph glyph-name="afii10146" unicode="&#x462;" horiz-adv-x="643" 
d="M614 193q0 -92 -62 -142.5t-175 -50.5h-282v464h-71v116h71v60h140v-60h173v-116h-173v-78h142q114 0 175.5 -50.5t61.5 -142.5zM472 193q0 37 -25 57t-72 20h-140v-154h140q46 0 71.5 20t25.5 57z" />
    <glyph glyph-name="afii10194" unicode="&#x463;" horiz-adv-x="592" 
d="M567 174q0 -79 -55.5 -126.5t-149.5 -47.5h-270v440h-83v114h83v136h137v-136h154v-114h-154v-92h133q94 0 149.5 -47.5t55.5 -126.5zM431 174q0 30 -18 46.5t-52 16.5h-132v-126h132q34 0 52 16.5t18 46.5z" />
    <glyph glyph-name="afii10147" unicode="&#x472;" horiz-adv-x="744" 
d="M372 650q144 0 239.5 -94t95.5 -236q0 -143 -95 -236.5t-240 -93.5t-240 93.5t-95 236.5q0 142 95.5 236t239.5 94zM372 522q-70 0 -120.5 -35t-68.5 -98h378q-19 63 -68.5 98t-120.5 35zM372 119q75 0 126 39t66 107h-384q15 -68 66 -107t126 -39z" />
    <glyph glyph-name="afii10195" unicode="&#x473;" horiz-adv-x="603" 
d="M301 510q118 0 193.5 -72.5t75.5 -187.5t-75.5 -187.5t-193.5 -72.5t-193 72.5t-75 187.5t75 187.5t193 72.5zM301 392q-51 0 -86.5 -25t-47.5 -70h269q-13 45 -48.5 70t-86.5 25zM301 109q51 0 86.5 24.5t48.5 69.5h-269q12 -45 47.5 -69.5t86.5 -24.5z" />
    <glyph glyph-name="afii10148" unicode="&#x474;" horiz-adv-x="729" 
d="M432 0h-148l-272 640h154l193 -468l127 331q32 83 72 110t124 27h25v-127h-24q-28 0 -42 -11.5t-27 -44.5z" />
    <glyph glyph-name="afii10196" unicode="&#x475;" horiz-adv-x="584" 
d="M356 0h-150l-200 500h142l134 -345l79 213q27 74 64.5 103t107.5 29h35v-114h-20q-26 0 -40.5 -12.5t-27.5 -46.5z" />
    <glyph glyph-name="afii10050" unicode="&#x490;" horiz-adv-x="533" 
d="M75 0v640h296v140h140v-267h-296v-513h-140z" />
    <glyph glyph-name="afii10098" unicode="&#x491;" horiz-adv-x="443" 
d="M67 0v500h223v150h137v-264h-223v-386h-137z" />
    <glyph glyph-name="Wgrave" unicode="&#x1e80;" horiz-adv-x="968" 
d="M16 640h149l128 -449l132 324l-47 125h151l156 -433l124 433h143l-193 -640h-139l-130 343l-141 -343h-139zM303 840h140l100 -150h-116z" />
    <glyph glyph-name="wgrave" unicode="&#x1e81;" horiz-adv-x="827" 
d="M662 0h-140l-102 267l-108 -267h-130l-173 500h138l112 -336l104 253l-32 83h138l124 -336l98 336h125zM232 690h140l100 -150h-116z" />
    <glyph glyph-name="Wacute" unicode="&#x1e82;" horiz-adv-x="968" 
d="M16 640h149l128 -449l132 324l-47 125h151l156 -433l124 433h143l-193 -640h-139l-130 343l-141 -343h-139zM427 690l100 150h140l-124 -150h-116z" />
    <glyph glyph-name="wacute" unicode="&#x1e83;" horiz-adv-x="827" 
d="M662 0h-140l-102 267l-108 -267h-130l-173 500h138l112 -336l104 253l-32 83h138l124 -336l98 336h125zM356 540l100 150h140l-124 -150h-116z" />
    <glyph glyph-name="Wdieresis" unicode="&#x1e84;" horiz-adv-x="968" 
d="M16 640h149l128 -449l132 324l-47 125h151l156 -433l124 433h143l-193 -640h-139l-130 343l-141 -343h-139zM334 718v122h122v-122h-122zM514 718v122h122v-122h-122z" />
    <glyph glyph-name="wdieresis" unicode="&#x1e85;" horiz-adv-x="827" 
d="M662 0h-140l-102 267l-108 -267h-130l-173 500h138l112 -336l104 253l-32 83h138l124 -336l98 336h125zM263 568v122h122v-122h-122zM443 568v122h122v-122h-122z" />
    <glyph glyph-name="uni1E9E" unicode="&#x1e9e;" horiz-adv-x="688" 
d="M357 266v94l109 149q-28 6 -52 9t-46 3q-82 0 -124 -40t-42 -119v-362h-140v368q0 135 77.5 208.5t220.5 73.5q66 0 129 -14.5t125 -43.5v-102l-92 -114q63 -20 96.5 -67t33.5 -114q0 -92 -60.5 -143.5t-167.5 -51.5h-148v124h140q46 0 70 18t24 53q0 34 -22.5 52.5
t-64.5 18.5h-66z" />
    <glyph glyph-name="uni1EA0" unicode="&#x1ea0;" horiz-adv-x="721" 
d="M288 640h145l272 -640h-152l-56 136h-279l-56 -136h-146zM358 476l-89 -215h177zM293 -190v132h137v-132h-137z" />
    <glyph glyph-name="uni1EA1" unicode="&#x1ea1;" horiz-adv-x="623" 
d="M556 500v-500h-97l-26 51q-30 -30 -69 -45.5t-84 -15.5q-104 0 -175.5 74t-71.5 186t71.5 186t175.5 74q45 0 84 -15.5t69 -45.5l26 51h97zM300 112q57 0 93 38t36 100t-36 100.5t-93 38.5t-93 -38.5t-36 -100.5t36 -100t93 -38zM232 -190v132h137v-132h-137z" />
    <glyph glyph-name="uni1EA2" unicode="&#x1ea2;" horiz-adv-x="721" 
d="M288 640h145l272 -640h-152l-56 136h-279l-56 -136h-146zM358 476l-89 -215h177zM494 780q0 -36 -26.5 -59t-80.5 -33l-55 -10v67l36 7q15 3 22 9.5t7 17.5q0 13 -9 20t-26 7q-18 0 -27.5 -8.5t-10.5 -24.5h-96q0 49 37.5 80t97.5 31q58 0 94.5 -29t36.5 -75z" />
    <glyph glyph-name="uni1EA3" unicode="&#x1ea3;" horiz-adv-x="623" 
d="M556 500v-500h-97l-26 51q-30 -30 -69 -45.5t-84 -15.5q-104 0 -175.5 74t-71.5 186t71.5 186t175.5 74q45 0 84 -15.5t69 -45.5l26 51h97zM300 112q57 0 93 38t36 100t-36 100.5t-93 38.5t-93 -38.5t-36 -100.5t36 -100t93 -38zM433 631q0 -36 -26.5 -59t-80.5 -33
l-55 -10v67l36 7q15 3 22 9.5t7 17.5q0 13 -9 20t-26 7q-18 0 -27.5 -8.5t-10.5 -24.5h-96q0 49 37.5 80t97.5 31q58 0 94.5 -29t36.5 -75z" />
    <glyph glyph-name="uni1EA4" unicode="&#x1ea4;" horiz-adv-x="721" 
d="M288 640h145l272 -640h-152l-56 136h-279l-56 -136h-146zM358 476l-89 -215h177zM473 790l50 150h128l-74 -150h-104zM528 690h-111l-56 74l-57 -74h-111l104 150h127z" />
    <glyph glyph-name="uni1EA5" unicode="&#x1ea5;" horiz-adv-x="623" 
d="M556 500v-500h-97l-26 51q-30 -30 -69 -45.5t-84 -15.5q-104 0 -175.5 74t-71.5 186t71.5 186t175.5 74q45 0 84 -15.5t69 -45.5l26 51h97zM300 112q57 0 93 38t36 100t-36 100.5t-93 38.5t-93 -38.5t-36 -100.5t36 -100t93 -38zM412 641l50 150h128l-74 -150h-104z
M467 541h-111l-56 74l-57 -74h-111l104 150h127z" />
    <glyph glyph-name="uni1EA6" unicode="&#x1ea6;" horiz-adv-x="721" 
d="M288 640h145l272 -640h-152l-56 136h-279l-56 -136h-146zM358 476l-89 -215h177zM389 940h134l90 -150h-110zM528 690h-111l-56 74l-57 -74h-111l104 150h127z" />
    <glyph glyph-name="uni1EA7" unicode="&#x1ea7;" horiz-adv-x="623" 
d="M556 500v-500h-97l-26 51q-30 -30 -69 -45.5t-84 -15.5q-104 0 -175.5 74t-71.5 186t71.5 186t175.5 74q45 0 84 -15.5t69 -45.5l26 51h97zM300 112q57 0 93 38t36 100t-36 100.5t-93 38.5t-93 -38.5t-36 -100.5t36 -100t93 -38zM328 791h134l90 -150h-110zM467 541h-111
l-56 74l-57 -74h-111l104 150h127z" />
    <glyph glyph-name="uni1EA8" unicode="&#x1ea8;" horiz-adv-x="721" 
d="M288 640h145l272 -640h-152l-56 136h-279l-56 -136h-146zM358 476l-89 -215h177zM618 892q0 -32 -24.5 -55t-73.5 -37l-41 -11v68l29 9q11 4 16.5 9.5t5.5 13.5q0 9 -9.5 14t-25.5 5q-19 0 -28.5 -6.5t-10.5 -19.5h-89q1 45 35.5 71t94.5 26q56 0 88.5 -23.5t32.5 -63.5z
M528 690h-111l-56 74l-57 -74h-111l104 150h127z" />
    <glyph glyph-name="uni1EA9" unicode="&#x1ea9;" horiz-adv-x="623" 
d="M556 500v-500h-97l-26 51q-30 -30 -69 -45.5t-84 -15.5q-104 0 -175.5 74t-71.5 186t71.5 186t175.5 74q45 0 84 -15.5t69 -45.5l26 51h97zM300 112q57 0 93 38t36 100t-36 100.5t-93 38.5t-93 -38.5t-36 -100.5t36 -100t93 -38zM557 743q0 -32 -24.5 -55t-73.5 -37
l-41 -11v68l29 9q11 4 16.5 9.5t5.5 13.5q0 9 -9.5 14t-25.5 5q-19 0 -28.5 -6.5t-10.5 -19.5h-89q1 45 35.5 71t94.5 26q56 0 88.5 -23.5t32.5 -63.5zM467 541h-111l-56 74l-57 -74h-111l104 150h127z" />
    <glyph glyph-name="uni1EAA" unicode="&#x1eaa;" horiz-adv-x="721" 
d="M288 640h145l272 -640h-152l-56 136h-279l-56 -136h-146zM358 476l-89 -215h177zM305 978q19 0 36.5 -9t42.5 -35q12 -12 16.5 -15.5t8.5 -3.5q10 0 14.5 12t4.5 40h80q0 -66 -23 -99t-69 -33q-19 0 -36 9t-41 35q-12 12 -17 15.5t-9 3.5q-11 0 -15.5 -12t-4.5 -40h-80
q0 66 23 99t69 33zM528 690h-111l-56 63l-57 -63h-111l104 130h127z" />
    <glyph glyph-name="uni1EAB" unicode="&#x1eab;" horiz-adv-x="623" 
d="M556 500v-500h-97l-26 51q-30 -30 -69 -45.5t-84 -15.5q-104 0 -175.5 74t-71.5 186t71.5 186t175.5 74q45 0 84 -15.5t69 -45.5l26 51h97zM300 112q57 0 93 38t36 100t-36 100.5t-93 38.5t-93 -38.5t-36 -100.5t36 -100t93 -38zM244 829q19 0 36.5 -9t42.5 -35
q12 -12 16.5 -15.5t8.5 -3.5q10 0 14.5 12t4.5 40h80q0 -66 -23 -99t-69 -33q-19 0 -36 9t-41 35q-12 12 -17 15.5t-9 3.5q-11 0 -15.5 -12t-4.5 -40h-80q0 66 23 99t69 33zM467 541h-111l-56 63l-57 -63h-111l104 130h127z" />
    <glyph glyph-name="uni1EAC" unicode="&#x1eac;" horiz-adv-x="721" 
d="M288 640h145l272 -640h-152l-56 136h-279l-56 -136h-146zM358 476l-89 -215h177zM528 690h-111l-56 74l-57 -74h-111l104 150h127zM293 -190v132h137v-132h-137z" />
    <glyph glyph-name="uni1EAD" unicode="&#x1ead;" horiz-adv-x="623" 
d="M556 500v-500h-97l-26 51q-30 -30 -69 -45.5t-84 -15.5q-104 0 -175.5 74t-71.5 186t71.5 186t175.5 74q45 0 84 -15.5t69 -45.5l26 51h97zM300 112q57 0 93 38t36 100t-36 100.5t-93 38.5t-93 -38.5t-36 -100.5t36 -100t93 -38zM467 541h-111l-56 74l-57 -74h-111
l104 150h127zM232 -190v132h137v-132h-137z" />
    <glyph glyph-name="uni1EAE" unicode="&#x1eae;" horiz-adv-x="721" 
d="M288 640h145l272 -640h-152l-56 136h-279l-56 -136h-146zM358 476l-89 -215h177zM303 860l100 100h140l-124 -100h-116zM361 690q-69 0 -108 39.5t-39 110.5h93q0 -34 13.5 -50.5t40.5 -16.5t40.5 16.5t13.5 50.5h93q0 -71 -39 -110.5t-108 -39.5z" />
    <glyph glyph-name="uni1EAF" unicode="&#x1eaf;" horiz-adv-x="623" 
d="M556 500v-500h-97l-26 51q-30 -30 -69 -45.5t-84 -15.5q-104 0 -175.5 74t-71.5 186t71.5 186t175.5 74q45 0 84 -15.5t69 -45.5l26 51h97zM300 112q57 0 93 38t36 100t-36 100.5t-93 38.5t-93 -38.5t-36 -100.5t36 -100t93 -38zM242 711l100 100h140l-124 -100h-116z
M300 541q-69 0 -108 39.5t-39 110.5h93q0 -34 13.5 -50.5t40.5 -16.5t40.5 16.5t13.5 50.5h93q0 -71 -39 -110.5t-108 -39.5z" />
    <glyph glyph-name="uni1EB0" unicode="&#x1eb0;" horiz-adv-x="721" 
d="M288 640h145l272 -640h-152l-56 136h-279l-56 -136h-146zM358 476l-89 -215h177zM179 960h144l100 -100h-120zM361 690q-69 0 -108 39.5t-39 110.5h93q0 -34 13.5 -50.5t40.5 -16.5t40.5 16.5t13.5 50.5h93q0 -71 -39 -110.5t-108 -39.5z" />
    <glyph glyph-name="uni1EB1" unicode="&#x1eb1;" horiz-adv-x="623" 
d="M556 500v-500h-97l-26 51q-30 -30 -69 -45.5t-84 -15.5q-104 0 -175.5 74t-71.5 186t71.5 186t175.5 74q45 0 84 -15.5t69 -45.5l26 51h97zM300 112q57 0 93 38t36 100t-36 100.5t-93 38.5t-93 -38.5t-36 -100.5t36 -100t93 -38zM118 811h144l100 -100h-120zM300 541
q-69 0 -108 39.5t-39 110.5h93q0 -34 13.5 -50.5t40.5 -16.5t40.5 16.5t13.5 50.5h93q0 -71 -39 -110.5t-108 -39.5z" />
    <glyph glyph-name="uni1EB2" unicode="&#x1eb2;" horiz-adv-x="721" 
d="M288 640h145l272 -640h-152l-56 136h-279l-56 -136h-146zM358 476l-89 -215h177zM481 902q0 -32 -22.5 -51t-75.5 -33l-41 -11v55l29 9q11 4 16.5 9.5t5.5 12.5q0 9 -9.5 14t-25.5 5q-19 0 -28.5 -6.5t-10.5 -19.5h-89q1 44 35.5 69.5t94.5 25.5q56 0 88.5 -21.5
t32.5 -57.5zM361 691q-68 0 -107.5 32.5t-39.5 90.5h86q0 -25 16 -38.5t45 -13.5t45 13.5t16 38.5h86q0 -58 -39.5 -90.5t-107.5 -32.5z" />
    <glyph glyph-name="uni1EB3" unicode="&#x1eb3;" horiz-adv-x="623" 
d="M556 500v-500h-97l-26 51q-30 -30 -69 -45.5t-84 -15.5q-104 0 -175.5 74t-71.5 186t71.5 186t175.5 74q45 0 84 -15.5t69 -45.5l26 51h97zM300 112q57 0 93 38t36 100t-36 100.5t-93 38.5t-93 -38.5t-36 -100.5t36 -100t93 -38zM420 752q0 -32 -22.5 -51t-75.5 -33
l-41 -11v55l29 9q11 4 16.5 9.5t5.5 12.5q0 9 -9.5 14t-25.5 5q-19 0 -28.5 -6.5t-10.5 -19.5h-89q1 44 35.5 69.5t94.5 25.5q56 0 88.5 -21.5t32.5 -57.5zM300 541q-68 0 -107.5 32.5t-39.5 90.5h86q0 -25 16 -38.5t45 -13.5t45 13.5t16 38.5h86q0 -58 -39.5 -90.5
t-107.5 -32.5z" />
    <glyph glyph-name="uni1EB4" unicode="&#x1eb4;" horiz-adv-x="721" 
d="M288 640h145l272 -640h-152l-56 136h-279l-56 -136h-146zM358 476l-89 -215h177zM305 980q19 0 37 -9.5t43 -36.5q12 -12 16.5 -15.5t8.5 -3.5q10 0 15 13t5 41h78q0 -67 -23 -100.5t-69 -33.5q-19 0 -36.5 9t-41.5 36q-12 13 -17.5 16.5t-9.5 3.5q-11 0 -15.5 -12.5
t-4.5 -41.5h-78q0 67 23 100.5t69 33.5zM361 690q-68 0 -107.5 34.5t-39.5 95.5h89q0 -25 14.5 -38t43.5 -13t43.5 13t14.5 38h89q0 -61 -39.5 -95.5t-107.5 -34.5z" />
    <glyph glyph-name="uni1EB5" unicode="&#x1eb5;" horiz-adv-x="623" 
d="M556 500v-500h-97l-26 51q-30 -30 -69 -45.5t-84 -15.5q-104 0 -175.5 74t-71.5 186t71.5 186t175.5 74q45 0 84 -15.5t69 -45.5l26 51h97zM300 112q57 0 93 38t36 100t-36 100.5t-93 38.5t-93 -38.5t-36 -100.5t36 -100t93 -38zM244 831q19 0 37 -9.5t43 -36.5
q12 -12 16.5 -15.5t8.5 -3.5q10 0 15 13t5 41h78q0 -67 -23 -100.5t-69 -33.5q-19 0 -36.5 9t-41.5 36q-12 13 -17.5 16.5t-9.5 3.5q-11 0 -15.5 -12.5t-4.5 -41.5h-78q0 67 23 100.5t69 33.5zM300 541q-68 0 -107.5 34.5t-39.5 95.5h89q0 -25 14.5 -38t43.5 -13t43.5 13
t14.5 38h89q0 -61 -39.5 -95.5t-107.5 -34.5z" />
    <glyph glyph-name="uni1EB6" unicode="&#x1eb6;" horiz-adv-x="721" 
d="M288 640h145l272 -640h-152l-56 136h-279l-56 -136h-146zM358 476l-89 -215h177zM361 690q-69 0 -108 39.5t-39 110.5h93q0 -34 13.5 -50.5t40.5 -16.5t40.5 16.5t13.5 50.5h93q0 -71 -39 -110.5t-108 -39.5zM293 -190v132h137v-132h-137z" />
    <glyph glyph-name="uni1EB7" unicode="&#x1eb7;" horiz-adv-x="623" 
d="M556 500v-500h-97l-26 51q-30 -30 -69 -45.5t-84 -15.5q-104 0 -175.5 74t-71.5 186t71.5 186t175.5 74q45 0 84 -15.5t69 -45.5l26 51h97zM300 112q57 0 93 38t36 100t-36 100.5t-93 38.5t-93 -38.5t-36 -100.5t36 -100t93 -38zM300 541q-69 0 -108 39.5t-39 110.5h93
q0 -34 13.5 -50.5t40.5 -16.5t40.5 16.5t13.5 50.5h93q0 -71 -39 -110.5t-108 -39.5zM232 -190v132h137v-132h-137z" />
    <glyph glyph-name="uni1EB8" unicode="&#x1eb8;" horiz-adv-x="583" 
d="M75 0v640h461v-127h-321v-129h291v-122h-291v-135h321v-127h-461zM241 -190v132h137v-132h-137z" />
    <glyph glyph-name="uni1EB9" unicode="&#x1eb9;" horiz-adv-x="575" 
d="M400 168h136q-13 -80 -78.5 -129t-160.5 -49q-116 0 -189.5 72.5t-73.5 187.5q0 116 71.5 188t185.5 72q112 0 180.5 -71t68.5 -187q0 -7 -0.5 -16.5t-1.5 -23.5h-369q8 -52 41.5 -79.5t86.5 -27.5q40 0 67 16.5t36 46.5zM287 398q-47 0 -76 -23.5t-40 -70.5h234
q-7 44 -39 69t-79 25zM223 -190v132h137v-132h-137z" />
    <glyph glyph-name="uni1EBA" unicode="&#x1eba;" horiz-adv-x="583" 
d="M75 0v640h461v-127h-321v-129h291v-122h-291v-135h321v-127h-461zM442 780q0 -36 -26.5 -59t-80.5 -33l-55 -10v67l36 7q15 3 22 9.5t7 17.5q0 13 -9 20t-26 7q-18 0 -27.5 -8.5t-10.5 -24.5h-96q0 49 37.5 80t97.5 31q58 0 94.5 -29t36.5 -75z" />
    <glyph glyph-name="uni1EBB" unicode="&#x1ebb;" horiz-adv-x="575" 
d="M400 168h136q-13 -80 -78.5 -129t-160.5 -49q-116 0 -189.5 72.5t-73.5 187.5q0 116 71.5 188t185.5 72q112 0 180.5 -71t68.5 -187q0 -7 -0.5 -16.5t-1.5 -23.5h-369q8 -52 41.5 -79.5t86.5 -27.5q40 0 67 16.5t36 46.5zM287 398q-47 0 -76 -23.5t-40 -70.5h234
q-7 44 -39 69t-79 25zM424 630q0 -36 -26.5 -59t-80.5 -33l-55 -10v67l36 7q15 3 22 9.5t7 17.5q0 13 -9 20t-26 7q-18 0 -27.5 -8.5t-10.5 -24.5h-96q0 49 37.5 80t97.5 31q58 0 94.5 -29t36.5 -75z" />
    <glyph glyph-name="uni1EBC" unicode="&#x1ebc;" horiz-adv-x="583" 
d="M75 0v640h461v-127h-321v-129h291v-122h-291v-135h321v-127h-461zM243 841q23 0 43.5 -9t49.5 -35q14 -12 19.5 -15.5t10.5 -3.5q9 0 12.5 12t3.5 40h84q0 -67 -23 -101t-69 -34q-22 0 -42.5 9t-48.5 34q-14 13 -20 16.5t-11 3.5q-9 0 -13 -12t-4 -40h-84q0 67 23 101
t69 34z" />
    <glyph glyph-name="uni1EBD" unicode="&#x1ebd;" horiz-adv-x="575" 
d="M400 168h136q-13 -80 -78.5 -129t-160.5 -49q-116 0 -189.5 72.5t-73.5 187.5q0 116 71.5 188t185.5 72q112 0 180.5 -71t68.5 -187q0 -7 -0.5 -16.5t-1.5 -23.5h-369q8 -52 41.5 -79.5t86.5 -27.5q40 0 67 16.5t36 46.5zM287 398q-47 0 -76 -23.5t-40 -70.5h234
q-7 44 -39 69t-79 25zM225 691q23 0 43.5 -9t49.5 -35q14 -12 19.5 -15.5t10.5 -3.5q9 0 12.5 12t3.5 40h84q0 -67 -23 -101t-69 -34q-22 0 -42.5 9t-48.5 34q-14 13 -20 16.5t-11 3.5q-9 0 -13 -12t-4 -40h-84q0 67 23 101t69 34z" />
    <glyph glyph-name="uni1EBE" unicode="&#x1ebe;" horiz-adv-x="583" 
d="M75 0v640h461v-127h-321v-129h291v-122h-291v-135h321v-127h-461zM421 790l50 150h128l-74 -150h-104zM476 690h-111l-56 74l-57 -74h-111l104 150h127z" />
    <glyph glyph-name="uni1EBF" unicode="&#x1ebf;" horiz-adv-x="575" 
d="M400 168h136q-13 -80 -78.5 -129t-160.5 -49q-116 0 -189.5 72.5t-73.5 187.5q0 116 71.5 188t185.5 72q112 0 180.5 -71t68.5 -187q0 -7 -0.5 -16.5t-1.5 -23.5h-369q8 -52 41.5 -79.5t86.5 -27.5q40 0 67 16.5t36 46.5zM287 398q-47 0 -76 -23.5t-40 -70.5h234
q-7 44 -39 69t-79 25zM403 640l50 150h128l-74 -150h-104zM458 540h-111l-56 74l-57 -74h-111l104 150h127z" />
    <glyph glyph-name="uni1EC0" unicode="&#x1ec0;" horiz-adv-x="583" 
d="M75 0v640h461v-127h-321v-129h291v-122h-291v-135h321v-127h-461zM337 940h134l90 -150h-110zM476 690h-111l-56 74l-57 -74h-111l104 150h127z" />
    <glyph glyph-name="uni1EC1" unicode="&#x1ec1;" horiz-adv-x="575" 
d="M400 168h136q-13 -80 -78.5 -129t-160.5 -49q-116 0 -189.5 72.5t-73.5 187.5q0 116 71.5 188t185.5 72q112 0 180.5 -71t68.5 -187q0 -7 -0.5 -16.5t-1.5 -23.5h-369q8 -52 41.5 -79.5t86.5 -27.5q40 0 67 16.5t36 46.5zM287 398q-47 0 -76 -23.5t-40 -70.5h234
q-7 44 -39 69t-79 25zM319 790h134l90 -150h-110zM458 540h-111l-56 74l-57 -74h-111l104 150h127z" />
    <glyph glyph-name="uni1EC2" unicode="&#x1ec2;" horiz-adv-x="583" 
d="M75 0v640h461v-127h-321v-129h291v-122h-291v-135h321v-127h-461zM566 892q0 -32 -24.5 -55t-73.5 -37l-41 -11v68l29 9q11 4 16.5 9.5t5.5 13.5q0 9 -9.5 14t-25.5 5q-19 0 -28.5 -6.5t-10.5 -19.5h-89q1 45 35.5 71t94.5 26q56 0 88.5 -23.5t32.5 -63.5zM476 690h-111
l-56 74l-57 -74h-111l104 150h127z" />
    <glyph glyph-name="uni1EC3" unicode="&#x1ec3;" horiz-adv-x="575" 
d="M400 168h136q-13 -80 -78.5 -129t-160.5 -49q-116 0 -189.5 72.5t-73.5 187.5q0 116 71.5 188t185.5 72q112 0 180.5 -71t68.5 -187q0 -7 -0.5 -16.5t-1.5 -23.5h-369q8 -52 41.5 -79.5t86.5 -27.5q40 0 67 16.5t36 46.5zM287 398q-47 0 -76 -23.5t-40 -70.5h234
q-7 44 -39 69t-79 25zM548 742q0 -32 -24.5 -55t-73.5 -37l-41 -11v68l29 9q11 4 16.5 9.5t5.5 13.5q0 9 -9.5 14t-25.5 5q-19 0 -28.5 -6.5t-10.5 -19.5h-89q1 45 35.5 71t94.5 26q56 0 88.5 -23.5t32.5 -63.5zM458 540h-111l-56 74l-57 -74h-111l104 150h127z" />
    <glyph glyph-name="uni1EC4" unicode="&#x1ec4;" horiz-adv-x="583" 
d="M75 0v640h461v-127h-321v-129h291v-122h-291v-135h321v-127h-461zM253 978q19 0 36.5 -9t42.5 -35q12 -12 16.5 -15.5t8.5 -3.5q10 0 14.5 12t4.5 40h80q0 -66 -23 -99t-69 -33q-19 0 -36 9t-41 35q-12 12 -17 15.5t-9 3.5q-11 0 -15.5 -12t-4.5 -40h-80q0 66 23 99
t69 33zM476 690h-111l-56 63l-57 -63h-111l104 130h127z" />
    <glyph glyph-name="uni1EC5" unicode="&#x1ec5;" horiz-adv-x="575" 
d="M400 168h136q-13 -80 -78.5 -129t-160.5 -49q-116 0 -189.5 72.5t-73.5 187.5q0 116 71.5 188t185.5 72q112 0 180.5 -71t68.5 -187q0 -7 -0.5 -16.5t-1.5 -23.5h-369q8 -52 41.5 -79.5t86.5 -27.5q40 0 67 16.5t36 46.5zM287 398q-47 0 -76 -23.5t-40 -70.5h234
q-7 44 -39 69t-79 25zM235 828q19 0 36.5 -9t42.5 -35q12 -12 16.5 -15.5t8.5 -3.5q10 0 14.5 12t4.5 40h80q0 -66 -23 -99t-69 -33q-19 0 -36 9t-41 35q-12 12 -17 15.5t-9 3.5q-11 0 -15.5 -12t-4.5 -40h-80q0 66 23 99t69 33zM458 540h-111l-56 63l-57 -63h-111l104 130
h127z" />
    <glyph glyph-name="uni1EC6" unicode="&#x1ec6;" horiz-adv-x="583" 
d="M75 0v640h461v-127h-321v-129h291v-122h-291v-135h321v-127h-461zM476 690h-111l-56 74l-57 -74h-111l104 150h127zM241 -190v132h137v-132h-137z" />
    <glyph glyph-name="uni1EC7" unicode="&#x1ec7;" horiz-adv-x="575" 
d="M400 168h136q-13 -80 -78.5 -129t-160.5 -49q-116 0 -189.5 72.5t-73.5 187.5q0 116 71.5 188t185.5 72q112 0 180.5 -71t68.5 -187q0 -7 -0.5 -16.5t-1.5 -23.5h-369q8 -52 41.5 -79.5t86.5 -27.5q40 0 67 16.5t36 46.5zM287 398q-47 0 -76 -23.5t-40 -70.5h234
q-7 44 -39 69t-79 25zM458 540h-111l-56 74l-57 -74h-111l104 150h127zM223 -190v132h137v-132h-137z" />
    <glyph glyph-name="uni1EC8" unicode="&#x1ec8;" horiz-adv-x="290" 
d="M75 0v640h140v-640h-140zM279 780q0 -36 -26.5 -59t-80.5 -33l-55 -10v67l36 7q15 3 22 9.5t7 17.5q0 13 -9 20t-26 7q-18 0 -27.5 -8.5t-10.5 -24.5h-96q0 49 37.5 80t97.5 31q58 0 94.5 -29t36.5 -75z" />
    <glyph glyph-name="uni1EC9" unicode="&#x1ec9;" horiz-adv-x="271" 
d="M67 0v500h137v-500h-137zM269 630q0 -36 -26.5 -59t-80.5 -33l-55 -10v67l36 7q15 3 22 9.5t7 17.5q0 13 -9 20t-26 7q-18 0 -27.5 -8.5t-10.5 -24.5h-96q0 49 37.5 80t97.5 31q58 0 94.5 -29t36.5 -75z" />
    <glyph glyph-name="uni1ECA" unicode="&#x1eca;" horiz-adv-x="290" 
d="M75 0v640h140v-640h-140zM77 -190v132h137v-132h-137z" />
    <glyph glyph-name="uni1ECB" unicode="&#x1ecb;" horiz-adv-x="271" 
d="M67 558v132h137v-132h-137zM67 0v500h137v-500h-137zM67 -190v132h137v-132h-137z" />
    <glyph glyph-name="uni1ECC" unicode="&#x1ecc;" horiz-adv-x="744" 
d="M372 650q144 0 239.5 -94t95.5 -236q0 -143 -95 -236.5t-240 -93.5t-240 93.5t-95 236.5q0 142 95.5 236t239.5 94zM372 119q86 0 138.5 55t52.5 146t-53 146.5t-138 55.5q-86 0 -139 -55.5t-53 -146.5q0 -90 53 -145.5t139 -55.5zM305 -190v132h137v-132h-137z" />
    <glyph glyph-name="uni1ECD" unicode="&#x1ecd;" horiz-adv-x="603" 
d="M301 510q118 0 193.5 -72.5t75.5 -187.5t-75.5 -187.5t-193.5 -72.5t-193 72.5t-75 187.5t75 187.5t193 72.5zM301 112q58 0 94.5 38t36.5 100t-36.5 100.5t-94.5 38.5t-94 -38.5t-36 -100.5t36 -100t94 -38zM234 -190v132h137v-132h-137z" />
    <glyph glyph-name="uni1ECE" unicode="&#x1ece;" horiz-adv-x="744" 
d="M372 650q144 0 239.5 -94t95.5 -236q0 -143 -95 -236.5t-240 -93.5t-240 93.5t-95 236.5q0 142 95.5 236t239.5 94zM372 119q86 0 138.5 55t52.5 146t-53 146.5t-138 55.5q-86 0 -139 -55.5t-53 -146.5q0 -90 53 -145.5t139 -55.5zM506 780q0 -36 -26.5 -59t-80.5 -33
l-55 -10v67l36 7q15 3 22 9.5t7 17.5q0 13 -9 20t-26 7q-18 0 -27.5 -8.5t-10.5 -24.5h-96q0 49 37.5 80t97.5 31q58 0 94.5 -29t36.5 -75z" />
    <glyph glyph-name="uni1ECF" unicode="&#x1ecf;" horiz-adv-x="603" 
d="M301 510q118 0 193.5 -72.5t75.5 -187.5t-75.5 -187.5t-193.5 -72.5t-193 72.5t-75 187.5t75 187.5t193 72.5zM301 112q58 0 94.5 38t36.5 100t-36.5 100.5t-94.5 38.5t-94 -38.5t-36 -100.5t36 -100t94 -38zM435 630q0 -36 -26.5 -59t-80.5 -33l-55 -10v67l36 7
q15 3 22 9.5t7 17.5q0 13 -9 20t-26 7q-18 0 -27.5 -8.5t-10.5 -24.5h-96q0 49 37.5 80t97.5 31q58 0 94.5 -29t36.5 -75z" />
    <glyph glyph-name="uni1ED0" unicode="&#x1ed0;" horiz-adv-x="744" 
d="M372 650q144 0 239.5 -94t95.5 -236q0 -143 -95 -236.5t-240 -93.5t-240 93.5t-95 236.5q0 142 95.5 236t239.5 94zM372 119q86 0 138.5 55t52.5 146t-53 146.5t-138 55.5q-86 0 -139 -55.5t-53 -146.5q0 -90 53 -145.5t139 -55.5zM485 790l50 150h128l-74 -150h-104z
M540 690h-111l-56 74l-57 -74h-111l104 150h127z" />
    <glyph glyph-name="uni1ED1" unicode="&#x1ed1;" horiz-adv-x="603" 
d="M301 510q118 0 193.5 -72.5t75.5 -187.5t-75.5 -187.5t-193.5 -72.5t-193 72.5t-75 187.5t75 187.5t193 72.5zM301 112q58 0 94.5 38t36.5 100t-36.5 100.5t-94.5 38.5t-94 -38.5t-36 -100.5t36 -100t94 -38zM414 640l50 150h128l-74 -150h-104zM469 540h-111l-56 74
l-57 -74h-111l104 150h127z" />
    <glyph glyph-name="uni1ED2" unicode="&#x1ed2;" horiz-adv-x="744" 
d="M372 650q144 0 239.5 -94t95.5 -236q0 -143 -95 -236.5t-240 -93.5t-240 93.5t-95 236.5q0 142 95.5 236t239.5 94zM372 119q86 0 138.5 55t52.5 146t-53 146.5t-138 55.5q-86 0 -139 -55.5t-53 -146.5q0 -90 53 -145.5t139 -55.5zM401 940h134l90 -150h-110zM540 690
h-111l-56 74l-57 -74h-111l104 150h127z" />
    <glyph glyph-name="uni1ED3" unicode="&#x1ed3;" horiz-adv-x="603" 
d="M301 510q118 0 193.5 -72.5t75.5 -187.5t-75.5 -187.5t-193.5 -72.5t-193 72.5t-75 187.5t75 187.5t193 72.5zM301 112q58 0 94.5 38t36.5 100t-36.5 100.5t-94.5 38.5t-94 -38.5t-36 -100.5t36 -100t94 -38zM330 790h134l90 -150h-110zM469 540h-111l-56 74l-57 -74
h-111l104 150h127z" />
    <glyph glyph-name="uni1ED4" unicode="&#x1ed4;" horiz-adv-x="744" 
d="M372 650q144 0 239.5 -94t95.5 -236q0 -143 -95 -236.5t-240 -93.5t-240 93.5t-95 236.5q0 142 95.5 236t239.5 94zM372 119q86 0 138.5 55t52.5 146t-53 146.5t-138 55.5q-86 0 -139 -55.5t-53 -146.5q0 -90 53 -145.5t139 -55.5zM630 892q0 -32 -24.5 -55t-73.5 -37
l-41 -11v68l29 9q11 4 16.5 9.5t5.5 13.5q0 9 -9.5 14t-25.5 5q-19 0 -28.5 -6.5t-10.5 -19.5h-89q1 45 35.5 71t94.5 26q56 0 88.5 -23.5t32.5 -63.5zM540 690h-111l-56 74l-57 -74h-111l104 150h127z" />
    <glyph glyph-name="uni1ED5" unicode="&#x1ed5;" horiz-adv-x="603" 
d="M301 510q118 0 193.5 -72.5t75.5 -187.5t-75.5 -187.5t-193.5 -72.5t-193 72.5t-75 187.5t75 187.5t193 72.5zM301 112q58 0 94.5 38t36.5 100t-36.5 100.5t-94.5 38.5t-94 -38.5t-36 -100.5t36 -100t94 -38zM559 742q0 -32 -24.5 -55t-73.5 -37l-41 -11v68l29 9
q11 4 16.5 9.5t5.5 13.5q0 9 -9.5 14t-25.5 5q-19 0 -28.5 -6.5t-10.5 -19.5h-89q1 45 35.5 71t94.5 26q56 0 88.5 -23.5t32.5 -63.5zM469 540h-111l-56 74l-57 -74h-111l104 150h127z" />
    <glyph glyph-name="uni1ED6" unicode="&#x1ed6;" horiz-adv-x="744" 
d="M372 650q144 0 239.5 -94t95.5 -236q0 -143 -95 -236.5t-240 -93.5t-240 93.5t-95 236.5q0 142 95.5 236t239.5 94zM372 119q86 0 138.5 55t52.5 146t-53 146.5t-138 55.5q-86 0 -139 -55.5t-53 -146.5q0 -90 53 -145.5t139 -55.5zM317 978q19 0 36.5 -9t42.5 -35
q12 -12 16.5 -15.5t8.5 -3.5q10 0 14.5 12t4.5 40h80q0 -66 -23 -99t-69 -33q-19 0 -36 9t-41 35q-12 12 -17 15.5t-9 3.5q-11 0 -15.5 -12t-4.5 -40h-80q0 66 23 99t69 33zM540 690h-111l-56 63l-57 -63h-111l104 130h127z" />
    <glyph glyph-name="uni1ED7" unicode="&#x1ed7;" horiz-adv-x="603" 
d="M301 510q118 0 193.5 -72.5t75.5 -187.5t-75.5 -187.5t-193.5 -72.5t-193 72.5t-75 187.5t75 187.5t193 72.5zM301 112q58 0 94.5 38t36.5 100t-36.5 100.5t-94.5 38.5t-94 -38.5t-36 -100.5t36 -100t94 -38zM246 828q19 0 36.5 -9t42.5 -35q12 -12 16.5 -15.5t8.5 -3.5
q10 0 14.5 12t4.5 40h80q0 -66 -23 -99t-69 -33q-19 0 -36 9t-41 35q-12 12 -17 15.5t-9 3.5q-11 0 -15.5 -12t-4.5 -40h-80q0 66 23 99t69 33zM469 540h-111l-56 63l-57 -63h-111l104 130h127z" />
    <glyph glyph-name="uni1ED8" unicode="&#x1ed8;" horiz-adv-x="744" 
d="M372 650q144 0 239.5 -94t95.5 -236q0 -143 -95 -236.5t-240 -93.5t-240 93.5t-95 236.5q0 142 95.5 236t239.5 94zM372 119q86 0 138.5 55t52.5 146t-53 146.5t-138 55.5q-86 0 -139 -55.5t-53 -146.5q0 -90 53 -145.5t139 -55.5zM540 690h-111l-56 74l-57 -74h-111
l104 150h127zM305 -190v132h137v-132h-137z" />
    <glyph glyph-name="uni1ED9" unicode="&#x1ed9;" horiz-adv-x="603" 
d="M301 510q118 0 193.5 -72.5t75.5 -187.5t-75.5 -187.5t-193.5 -72.5t-193 72.5t-75 187.5t75 187.5t193 72.5zM301 112q58 0 94.5 38t36.5 100t-36.5 100.5t-94.5 38.5t-94 -38.5t-36 -100.5t36 -100t94 -38zM469 540h-111l-56 74l-57 -74h-111l104 150h127zM234 -190
v132h137v-132h-137z" />
    <glyph glyph-name="uni1EDA" unicode="&#x1eda;" horiz-adv-x="759" 
d="M610 543q47 -39 72 -96.5t25 -126.5q0 -143 -95 -236.5t-240 -93.5t-240 93.5t-95 236.5q0 142 95.5 236t239.5 94q23 0 46.5 -1t63.5 -5q26 -3 37.5 -3.5t21.5 -0.5q38 0 58.5 19.5t20.5 55.5v13h127v-28q0 -59 -36.5 -100t-100.5 -57zM372 119q86 0 138.5 55t52.5 146
t-53 146.5t-138 55.5q-86 0 -139 -55.5t-53 -146.5q0 -90 53 -145.5t139 -55.5zM315 690l100 150h140l-124 -150h-116z" />
    <glyph glyph-name="uni1EDB" unicode="&#x1edb;" horiz-adv-x="637" 
d="M506 400q31 -31 47.5 -71t16.5 -86q0 -110 -76 -181.5t-193 -71.5q-118 0 -193 72.5t-75 187.5t75 187.5t193 72.5q20 0 41 -1t56 -5q23 -3 33.5 -3.5t18.5 -0.5q33 0 51 19.5t18 55.5v13h127v-28q0 -61 -37.5 -103.5t-102.5 -56.5zM301 112q58 0 94.5 38t36.5 100
t-36.5 100.5t-94.5 38.5t-94 -38.5t-36 -100.5t36 -100t94 -38zM224 539l100 150h140l-124 -150h-116z" />
    <glyph glyph-name="uni1EDC" unicode="&#x1edc;" horiz-adv-x="759" 
d="M610 543q47 -39 72 -96.5t25 -126.5q0 -143 -95 -236.5t-240 -93.5t-240 93.5t-95 236.5q0 142 95.5 236t239.5 94q23 0 46.5 -1t63.5 -5q26 -3 37.5 -3.5t21.5 -0.5q38 0 58.5 19.5t20.5 55.5v13h127v-28q0 -59 -36.5 -100t-100.5 -57zM372 119q86 0 138.5 55t52.5 146
t-53 146.5t-138 55.5q-86 0 -139 -55.5t-53 -146.5q0 -90 53 -145.5t139 -55.5zM191 840h140l100 -150h-116z" />
    <glyph glyph-name="uni1EDD" unicode="&#x1edd;" horiz-adv-x="637" 
d="M506 400q31 -31 47.5 -71t16.5 -86q0 -110 -76 -181.5t-193 -71.5q-118 0 -193 72.5t-75 187.5t75 187.5t193 72.5q20 0 41 -1t56 -5q23 -3 33.5 -3.5t18.5 -0.5q33 0 51 19.5t18 55.5v13h127v-28q0 -61 -37.5 -103.5t-102.5 -56.5zM301 112q58 0 94.5 38t36.5 100
t-36.5 100.5t-94.5 38.5t-94 -38.5t-36 -100.5t36 -100t94 -38zM100 689h140l100 -150h-116z" />
    <glyph glyph-name="uni1EDE" unicode="&#x1ede;" horiz-adv-x="759" 
d="M610 543q47 -39 72 -96.5t25 -126.5q0 -143 -95 -236.5t-240 -93.5t-240 93.5t-95 236.5q0 142 95.5 236t239.5 94q23 0 46.5 -1t63.5 -5q26 -3 37.5 -3.5t21.5 -0.5q38 0 58.5 19.5t20.5 55.5v13h127v-28q0 -59 -36.5 -100t-100.5 -57zM372 119q86 0 138.5 55t52.5 146
t-53 146.5t-138 55.5q-86 0 -139 -55.5t-53 -146.5q0 -90 53 -145.5t139 -55.5zM506 780q0 -36 -26.5 -59t-80.5 -33l-55 -10v67l36 7q15 3 22 9.5t7 17.5q0 13 -9 20t-26 7q-18 0 -27.5 -8.5t-10.5 -24.5h-96q0 49 37.5 80t97.5 31q58 0 94.5 -29t36.5 -75z" />
    <glyph glyph-name="uni1EDF" unicode="&#x1edf;" horiz-adv-x="637" 
d="M506 400q31 -31 47.5 -71t16.5 -86q0 -110 -76 -181.5t-193 -71.5q-118 0 -193 72.5t-75 187.5t75 187.5t193 72.5q20 0 41 -1t56 -5q23 -3 33.5 -3.5t18.5 -0.5q33 0 51 19.5t18 55.5v13h127v-28q0 -61 -37.5 -103.5t-102.5 -56.5zM301 112q58 0 94.5 38t36.5 100
t-36.5 100.5t-94.5 38.5t-94 -38.5t-36 -100.5t36 -100t94 -38zM415 629q0 -36 -26.5 -59t-80.5 -33l-55 -10v67l36 7q15 3 22 9.5t7 17.5q0 13 -9 20t-26 7q-18 0 -27.5 -8.5t-10.5 -24.5h-96q0 49 37.5 80t97.5 31q58 0 94.5 -29t36.5 -75z" />
    <glyph glyph-name="uni1EE0" unicode="&#x1ee0;" horiz-adv-x="759" 
d="M610 543q47 -39 72 -96.5t25 -126.5q0 -143 -95 -236.5t-240 -93.5t-240 93.5t-95 236.5q0 142 95.5 236t239.5 94q23 0 46.5 -1t63.5 -5q26 -3 37.5 -3.5t21.5 -0.5q38 0 58.5 19.5t20.5 55.5v13h127v-28q0 -59 -36.5 -100t-100.5 -57zM372 119q86 0 138.5 55t52.5 146
t-53 146.5t-138 55.5q-86 0 -139 -55.5t-53 -146.5q0 -90 53 -145.5t139 -55.5zM307 841q23 0 43.5 -9t49.5 -35q14 -12 19.5 -15.5t10.5 -3.5q9 0 12.5 12t3.5 40h84q0 -67 -23 -101t-69 -34q-22 0 -42.5 9t-48.5 34q-14 13 -20 16.5t-11 3.5q-9 0 -13 -12t-4 -40h-84
q0 67 23 101t69 34z" />
    <glyph glyph-name="uni1EE1" unicode="&#x1ee1;" horiz-adv-x="637" 
d="M506 400q31 -31 47.5 -71t16.5 -86q0 -110 -76 -181.5t-193 -71.5q-118 0 -193 72.5t-75 187.5t75 187.5t193 72.5q20 0 41 -1t56 -5q23 -3 33.5 -3.5t18.5 -0.5q33 0 51 19.5t18 55.5v13h127v-28q0 -61 -37.5 -103.5t-102.5 -56.5zM301 112q58 0 94.5 38t36.5 100
t-36.5 100.5t-94.5 38.5t-94 -38.5t-36 -100.5t36 -100t94 -38zM216 690q23 0 43.5 -9t49.5 -35q14 -12 19.5 -15.5t10.5 -3.5q9 0 12.5 12t3.5 40h84q0 -67 -23 -101t-69 -34q-22 0 -42.5 9t-48.5 34q-14 13 -20 16.5t-11 3.5q-9 0 -13 -12t-4 -40h-84q0 67 23 101t69 34z
" />
    <glyph glyph-name="uni1EE2" unicode="&#x1ee2;" horiz-adv-x="759" 
d="M610 543q47 -39 72 -96.5t25 -126.5q0 -143 -95 -236.5t-240 -93.5t-240 93.5t-95 236.5q0 142 95.5 236t239.5 94q23 0 46.5 -1t63.5 -5q26 -3 37.5 -3.5t21.5 -0.5q38 0 58.5 19.5t20.5 55.5v13h127v-28q0 -59 -36.5 -100t-100.5 -57zM372 119q86 0 138.5 55t52.5 146
t-53 146.5t-138 55.5q-86 0 -139 -55.5t-53 -146.5q0 -90 53 -145.5t139 -55.5zM305 -190v132h137v-132h-137z" />
    <glyph glyph-name="uni1EE3" unicode="&#x1ee3;" horiz-adv-x="637" 
d="M506 400q31 -31 47.5 -71t16.5 -86q0 -110 -76 -181.5t-193 -71.5q-118 0 -193 72.5t-75 187.5t75 187.5t193 72.5q20 0 41 -1t56 -5q23 -3 33.5 -3.5t18.5 -0.5q33 0 51 19.5t18 55.5v13h127v-28q0 -61 -37.5 -103.5t-102.5 -56.5zM301 112q58 0 94.5 38t36.5 100
t-36.5 100.5t-94.5 38.5t-94 -38.5t-36 -100.5t36 -100t94 -38zM236 -190v132h137v-132h-137z" />
    <glyph glyph-name="uni1EE4" unicode="&#x1ee4;" horiz-adv-x="702" 
d="M351 -10q-140 0 -215 73t-75 209v368h140v-362q0 -79 37.5 -119t112.5 -40q74 0 112 40t38 119v362h140v-368q0 -136 -75 -209t-215 -73zM284 -190v132h137v-132h-137z" />
    <glyph glyph-name="uni1EE5" unicode="&#x1ee5;" 
d="M290 -10q-108 0 -172 57t-64 155v298h137v-283q0 -50 26 -77.5t73 -27.5t73 27.5t26 77.5v283h137v-298q0 -95 -65 -153.5t-171 -58.5zM222 -190v132h137v-132h-137z" />
    <glyph glyph-name="uni1EE6" unicode="&#x1ee6;" horiz-adv-x="702" 
d="M351 -10q-140 0 -215 73t-75 209v368h140v-362q0 -79 37.5 -119t112.5 -40q74 0 112 40t38 119v362h140v-368q0 -136 -75 -209t-215 -73zM485 780q0 -36 -26.5 -59t-80.5 -33l-55 -10v67l36 7q15 3 22 9.5t7 17.5q0 13 -9 20t-26 7q-18 0 -27.5 -8.5t-10.5 -24.5h-96
q0 49 37.5 80t97.5 31q58 0 94.5 -29t36.5 -75z" />
    <glyph glyph-name="uni1EE7" unicode="&#x1ee7;" 
d="M290 -10q-108 0 -172 57t-64 155v298h137v-283q0 -50 26 -77.5t73 -27.5t73 27.5t26 77.5v283h137v-298q0 -95 -65 -153.5t-171 -58.5zM423 630q0 -36 -26.5 -59t-80.5 -33l-55 -10v67l36 7q15 3 22 9.5t7 17.5q0 13 -9 20t-26 7q-18 0 -27.5 -8.5t-10.5 -24.5h-96
q0 49 37.5 80t97.5 31q58 0 94.5 -29t36.5 -75z" />
    <glyph glyph-name="uni1EE8" unicode="&#x1ee8;" horiz-adv-x="796" 
d="M351 -10q-140 0 -215 73t-75 209v368h140v-362q0 -79 37.5 -119t112.5 -40q74 0 112 40t38 119v362h93q38 0 58.5 19.5t20.5 55.5v13h127v-28q0 -63 -43 -106.5t-116 -55.5v-266q0 -136 -75 -209t-215 -73zM294 690l100 150h140l-124 -150h-116z" />
    <glyph glyph-name="uni1EE9" unicode="&#x1ee9;" horiz-adv-x="657" 
d="M290 -10q-108 0 -172 57t-64 155v298h137v-283q0 -50 26 -77.5t73 -27.5t73 27.5t26 77.5v283h81q33 0 51 19.5t18 55.5v13h127v-28q0 -63 -37.5 -107.5t-102.5 -58.5v-192q0 -95 -65 -153.5t-171 -58.5zM232 540l100 150h140l-124 -150h-116z" />
    <glyph glyph-name="uni1EEA" unicode="&#x1eea;" horiz-adv-x="796" 
d="M351 -10q-140 0 -215 73t-75 209v368h140v-362q0 -79 37.5 -119t112.5 -40q74 0 112 40t38 119v362h93q38 0 58.5 19.5t20.5 55.5v13h127v-28q0 -63 -43 -106.5t-116 -55.5v-266q0 -136 -75 -209t-215 -73zM170 840h140l100 -150h-116z" />
    <glyph glyph-name="uni1EEB" unicode="&#x1eeb;" horiz-adv-x="657" 
d="M290 -10q-108 0 -172 57t-64 155v298h137v-283q0 -50 26 -77.5t73 -27.5t73 27.5t26 77.5v283h81q33 0 51 19.5t18 55.5v13h127v-28q0 -63 -37.5 -107.5t-102.5 -58.5v-192q0 -95 -65 -153.5t-171 -58.5zM108 690h140l100 -150h-116z" />
    <glyph glyph-name="uni1EEC" unicode="&#x1eec;" horiz-adv-x="796" 
d="M351 -10q-140 0 -215 73t-75 209v368h140v-362q0 -79 37.5 -119t112.5 -40q74 0 112 40t38 119v362h93q38 0 58.5 19.5t20.5 55.5v13h127v-28q0 -63 -43 -106.5t-116 -55.5v-266q0 -136 -75 -209t-215 -73zM485 780q0 -36 -26.5 -59t-80.5 -33l-55 -10v67l36 7
q15 3 22 9.5t7 17.5q0 13 -9 20t-26 7q-18 0 -27.5 -8.5t-10.5 -24.5h-96q0 49 37.5 80t97.5 31q58 0 94.5 -29t36.5 -75z" />
    <glyph glyph-name="uni1EED" unicode="&#x1eed;" horiz-adv-x="657" 
d="M290 -10q-108 0 -172 57t-64 155v298h137v-283q0 -50 26 -77.5t73 -27.5t73 27.5t26 77.5v283h81q33 0 51 19.5t18 55.5v13h127v-28q0 -63 -37.5 -107.5t-102.5 -58.5v-192q0 -95 -65 -153.5t-171 -58.5zM423 630q0 -36 -26.5 -59t-80.5 -33l-55 -10v67l36 7q15 3 22 9.5
t7 17.5q0 13 -9 20t-26 7q-18 0 -27.5 -8.5t-10.5 -24.5h-96q0 49 37.5 80t97.5 31q58 0 94.5 -29t36.5 -75z" />
    <glyph glyph-name="uni1EEE" unicode="&#x1eee;" horiz-adv-x="796" 
d="M351 -10q-140 0 -215 73t-75 209v368h140v-362q0 -79 37.5 -119t112.5 -40q74 0 112 40t38 119v362h93q38 0 58.5 19.5t20.5 55.5v13h127v-28q0 -63 -43 -106.5t-116 -55.5v-266q0 -136 -75 -209t-215 -73zM286 841q23 0 43.5 -9t49.5 -35q14 -12 19.5 -15.5t10.5 -3.5
q9 0 12.5 12t3.5 40h84q0 -67 -23 -101t-69 -34q-22 0 -42.5 9t-48.5 34q-14 13 -20 16.5t-11 3.5q-9 0 -13 -12t-4 -40h-84q0 67 23 101t69 34z" />
    <glyph glyph-name="uni1EEF" unicode="&#x1eef;" horiz-adv-x="657" 
d="M290 -10q-108 0 -172 57t-64 155v298h137v-283q0 -50 26 -77.5t73 -27.5t73 27.5t26 77.5v283h81q33 0 51 19.5t18 55.5v13h127v-28q0 -63 -37.5 -107.5t-102.5 -58.5v-192q0 -95 -65 -153.5t-171 -58.5zM225 691q23 0 43.5 -9t49.5 -35q14 -12 19.5 -15.5t10.5 -3.5
q9 0 12.5 12t3.5 40h84q0 -67 -23 -101t-69 -34q-22 0 -42.5 9t-48.5 34q-14 13 -20 16.5t-11 3.5q-9 0 -13 -12t-4 -40h-84q0 67 23 101t69 34z" />
    <glyph glyph-name="uni1EF0" unicode="&#x1ef0;" horiz-adv-x="796" 
d="M351 -10q-140 0 -215 73t-75 209v368h140v-362q0 -79 37.5 -119t112.5 -40q74 0 112 40t38 119v362h93q38 0 58.5 19.5t20.5 55.5v13h127v-28q0 -63 -43 -106.5t-116 -55.5v-266q0 -136 -75 -209t-215 -73zM284 -190v132h137v-132h-137z" />
    <glyph glyph-name="uni1EF1" unicode="&#x1ef1;" horiz-adv-x="657" 
d="M290 -10q-108 0 -172 57t-64 155v298h137v-283q0 -50 26 -77.5t73 -27.5t73 27.5t26 77.5v283h81q33 0 51 19.5t18 55.5v13h127v-28q0 -63 -37.5 -107.5t-102.5 -58.5v-192q0 -95 -65 -153.5t-171 -58.5zM222 -190v132h137v-132h-137z" />
    <glyph glyph-name="Ygrave" unicode="&#x1ef2;" horiz-adv-x="646" 
d="M486 640h153l-247 -400v-240h-140v242l-245 398h161l159 -266zM142 840h140l100 -150h-116z" />
    <glyph glyph-name="ygrave" unicode="&#x1ef3;" horiz-adv-x="564" 
d="M239 -4l1 4h-42l-191 500h142l137 -372l133 372h137l-197 -540q-28 -81 -74.5 -115.5t-135.5 -34.5h-79v121h71q45 0 65 13.5t33 51.5zM100 690h140l100 -150h-116z" />
    <glyph glyph-name="uni1EF4" unicode="&#x1ef4;" horiz-adv-x="646" 
d="M486 640h153l-247 -400v-240h-140v242l-245 398h161l159 -266zM254 -190v132h137v-132h-137z" />
    <glyph glyph-name="uni1EF5" unicode="&#x1ef5;" horiz-adv-x="564" 
d="M239 -4l1 4h-42l-191 500h142l137 -372l133 372h137l-197 -540q-28 -81 -74.5 -115.5t-135.5 -34.5h-79v121h71q45 0 65 13.5t33 51.5zM393 -190v132h137v-132h-137z" />
    <glyph glyph-name="uni1EF6" unicode="&#x1ef6;" horiz-adv-x="646" 
d="M486 640h153l-247 -400v-240h-140v242l-245 398h161l159 -266zM457 780q0 -36 -26.5 -59t-80.5 -33l-55 -10v67l36 7q15 3 22 9.5t7 17.5q0 13 -9 20t-26 7q-18 0 -27.5 -8.5t-10.5 -24.5h-96q0 49 37.5 80t97.5 31q58 0 94.5 -29t36.5 -75z" />
    <glyph glyph-name="uni1EF7" unicode="&#x1ef7;" horiz-adv-x="564" 
d="M239 -4l1 4h-42l-191 500h142l137 -372l133 372h137l-197 -540q-28 -81 -74.5 -115.5t-135.5 -34.5h-79v121h71q45 0 65 13.5t33 51.5zM415 630q0 -36 -26.5 -59t-80.5 -33l-55 -10v67l36 7q15 3 22 9.5t7 17.5q0 13 -9 20t-26 7q-18 0 -27.5 -8.5t-10.5 -24.5h-96
q0 49 37.5 80t97.5 31q58 0 94.5 -29t36.5 -75z" />
    <glyph glyph-name="endash" unicode="&#x2013;" horiz-adv-x="500" 
d="M455 224h-410v114h410v-114z" />
    <glyph glyph-name="emdash" unicode="&#x2014;" horiz-adv-x="1000" 
d="M955 224h-910v114h910v-114z" />
    <glyph glyph-name="quoteleft" unicode="&#x2018;" horiz-adv-x="268" 
d="M234 640l-52 -290h-147l77 290h122z" />
    <glyph glyph-name="quoteright" unicode="&#x2019;" horiz-adv-x="268" 
d="M34 350l52 290h147l-77 -290h-122z" />
    <glyph glyph-name="quotesinglbase" unicode="&#x201a;" horiz-adv-x="242" 
d="M10 -148l52 290h147l-77 -290h-122z" />
    <glyph glyph-name="quotedblleft" unicode="&#x201c;" horiz-adv-x="498" 
d="M464 640l-52 -290h-147l77 290h122zM234 640l-52 -290h-147l77 290h122z" />
    <glyph glyph-name="quotedblright" unicode="&#x201d;" horiz-adv-x="498" 
d="M34 350l52 290h147l-77 -290h-122zM264 350l52 290h147l-77 -290h-122z" />
    <glyph glyph-name="quotedblbase" unicode="&#x201e;" horiz-adv-x="472" 
d="M10 -148l52 290h147l-77 -290h-122zM240 -148l52 290h147l-77 -290h-122z" />
    <glyph glyph-name="dagger" unicode="&#x2020;" horiz-adv-x="526" 
d="M333 -134h-140v538h-170v114h170v172h140v-172h170v-114h-170v-538z" />
    <glyph glyph-name="daggerdbl" unicode="&#x2021;" horiz-adv-x="562" 
d="M211 38h-170v114h170v252h-170v114h170v172h140v-172h170v-114h-170v-252h170v-114h-170v-172h-140v172z" />
    <glyph glyph-name="bullet" unicode="&#x2022;" horiz-adv-x="251" 
d="M32 190v182h187v-182h-187z" />
    <glyph glyph-name="ellipsis" unicode="&#x2026;" horiz-adv-x="731" 
d="M522 0v142h147v-142h-147zM62 0v142h147v-142h-147zM292 0v142h147v-142h-147z" />
    <glyph glyph-name="perthousand" unicode="&#x2030;" horiz-adv-x="1340" 
d="M420 463q0 -82 -54.5 -134t-140.5 -52t-141 52t-55 134t55 134.5t141 52.5t140.5 -52.5t54.5 -134.5zM333 0h-132l394 640h132zM146 463q0 -36 22 -58t57 -22q34 0 56 22.5t22 57.5q0 36 -21.5 58.5t-56.5 22.5t-57 -22.5t-22 -58.5zM898 176q0 -82 -54.5 -134
t-140.5 -52t-141 52t-55 134t55 134.5t141 52.5t140.5 -52.5t54.5 -134.5zM1311 176q0 -82 -54.5 -134t-140.5 -52t-141 52t-55 134t55 134.5t141 52.5t140.5 -52.5t54.5 -134.5zM624 177q0 -36 22 -58.5t57 -22.5q34 0 56 22.5t22 58.5q0 35 -22 57.5t-56 22.5
q-35 0 -57 -22.5t-22 -57.5zM1037 177q0 -36 22 -58.5t57 -22.5q34 0 56 22.5t22 58.5q0 35 -22 57.5t-56 22.5q-35 0 -57 -22.5t-22 -57.5z" />
    <glyph glyph-name="guilsinglleft" unicode="&#x2039;" horiz-adv-x="318" 
d="M154 0l-134 250l134 250h140l-134 -250l134 -250h-140z" />
    <glyph glyph-name="guilsinglright" unicode="&#x203a;" horiz-adv-x="318" 
d="M164 500l134 -250l-134 -250h-140l134 250l-134 250h140z" />
    <glyph glyph-name="fraction" unicode="&#x2044;" horiz-adv-x="204" 
d="M11 0h-122l304 640h122z" />
    <glyph glyph-name="zerosuperior" unicode="&#x2070;" horiz-adv-x="381" 
d="M18 567q0 89 47.5 143.5t124.5 54.5q78 0 125.5 -54.5t47.5 -143.5q0 -88 -48 -143t-125 -55q-76 0 -124 55t-48 143zM256 566q0 47 -17.5 75t-48.5 28q-30 0 -48 -28.5t-18 -74.5t18 -73.5t48 -27.5q32 0 49 26.5t17 74.5z" />
    <glyph glyph-name="foursuperior" unicode="&#x2074;" horiz-adv-x="361" 
d="M287 375h-99v70h-172v86l164 228h107v-228h61v-86h-61v-70zM192 636l-76 -105h76v105z" />
    <glyph glyph-name="fivesuperior" unicode="&#x2075;" horiz-adv-x="326" 
d="M117 532h-91l23 227h235v-89h-154l-5 -55q14 5 27.5 7.5t26.5 2.5q58 0 94 -33t36 -87q0 -60 -39.5 -98t-101.5 -38t-103 33.5t-45 86.5h101q1 -15 13 -24.5t30 -9.5q22 0 35 12.5t13 33.5q0 20 -14.5 33t-36.5 13q-14 0 -25.5 -4t-18.5 -11z" />
    <glyph glyph-name="sixsuperior" unicode="&#x2076;" horiz-adv-x="332" 
d="M49 622l78 137h110l-68 -119h10q62 0 101 -36t39 -92q0 -61 -44.5 -102t-110.5 -41t-107.5 39.5t-41.5 102.5q0 29 7.5 53t26.5 58zM109 512q0 -24 14.5 -37.5t40.5 -13.5t40.5 13.5t14.5 37.5q0 23 -14.5 36.5t-40.5 13.5q-25 0 -40 -13.5t-15 -36.5z" />
    <glyph glyph-name="sevensuperior" unicode="&#x2077;" horiz-adv-x="308" 
d="M179 670h-166v89h279v-89l-132 -295h-113z" />
    <glyph glyph-name="eightsuperior" unicode="&#x2078;" horiz-adv-x="339" 
d="M28 652q0 49 40 81t102 32t102 -32t40 -81q0 -25 -11.5 -45.5t-32.5 -34.5q26 -14 40 -36.5t14 -49.5q0 -50 -43.5 -83.5t-108.5 -33.5t-108.5 33.5t-43.5 83.5q0 27 14 49.5t40 36.5q-21 14 -32.5 34.5t-11.5 45.5zM170 609q22 0 34.5 9t12.5 26q0 15 -13 24.5t-34 9.5
q-22 0 -35 -9.5t-13 -25.5t13 -25t35 -9zM170 459q21 0 35.5 11t14.5 28t-14.5 28t-35.5 11t-36.5 -11.5t-15.5 -27.5t15.5 -27.5t36.5 -11.5z" />
    <glyph glyph-name="ninesuperior" unicode="&#x2079;" horiz-adv-x="332" 
d="M283 512l-78 -137h-111l68 118h-8q-62 0 -101 36.5t-39 92.5q0 61 44 102t110 41t107.5 -39.5t41.5 -102.5q0 -29 -7.5 -53t-26.5 -58zM224 622q0 24 -15 37.5t-41 13.5q-25 0 -40 -13.5t-15 -37.5q0 -23 15 -36.5t40 -13.5t40.5 13.5t15.5 36.5z" />
    <glyph glyph-name="zeroinferior" unicode="&#x2080;" horiz-adv-x="381" 
d="M18 73q0 89 47.5 143.5t124.5 54.5q78 0 125.5 -54.5t47.5 -143.5q0 -88 -48 -143t-125 -55q-76 0 -124 55t-48 143zM256 72q0 47 -17.5 75t-48.5 28q-30 0 -48 -28.5t-18 -74.5t18 -73.5t48 -27.5q32 0 49 26.5t17 74.5z" />
    <glyph glyph-name="oneinferior" unicode="&#x2081;" horiz-adv-x="235" 
d="M198 265v-384h-103v288h-78l30 96h151z" />
    <glyph glyph-name="twoinferior" unicode="&#x2082;" horiz-adv-x="334" 
d="M308 -119h-280v89l132 107q24 19 31.5 31.5t7.5 30.5q0 17 -10.5 29t-26.5 12q-15 0 -25 -10.5t-12 -26.5h-101q-1 55 40.5 91.5t104.5 36.5q61 0 98.5 -34.5t37.5 -90.5q0 -37 -19.5 -69t-62.5 -66l-52 -41h137v-89z" />
    <glyph glyph-name="threeinferior" unicode="&#x2083;" horiz-adv-x="321" 
d="M252 78q24 -13 37 -36t13 -53q0 -48 -40.5 -81t-100.5 -33q-61 0 -101.5 33t-44.5 85h99q5 -15 17 -23.5t29 -8.5q20 0 31.5 9.5t11.5 26.5t-11 28t-29 11h-73v80h68q16 0 26 9t10 23q0 17 -10.5 27t-27.5 10q-15 0 -25 -8t-15 -24h-99q3 52 42.5 85t96.5 33
q61 0 99 -32.5t38 -84.5q0 -24 -10.5 -44t-30.5 -32z" />
    <glyph glyph-name="fourinferior" unicode="&#x2084;" horiz-adv-x="361" 
d="M287 -119h-99v70h-172v86l164 228h107v-228h61v-86h-61v-70zM192 142l-76 -105h76v105z" />
    <glyph glyph-name="fiveinferior" unicode="&#x2085;" horiz-adv-x="326" 
d="M117 38h-91l23 227h235v-89h-154l-5 -55q14 5 27.5 7.5t26.5 2.5q58 0 94 -33t36 -87q0 -60 -39.5 -98t-101.5 -38t-103 33.5t-45 86.5h101q1 -15 13 -24.5t30 -9.5q22 0 35 12.5t13 33.5q0 20 -14.5 33t-36.5 13q-14 0 -25.5 -4t-18.5 -11z" />
    <glyph glyph-name="sixinferior" unicode="&#x2086;" horiz-adv-x="332" 
d="M49 128l78 137h110l-68 -119h10q62 0 101 -36t39 -92q0 -61 -44.5 -102t-110.5 -41t-107.5 39.5t-41.5 102.5q0 29 7.5 53t26.5 58zM109 18q0 -24 14.5 -37.5t40.5 -13.5t40.5 13.5t14.5 37.5q0 23 -14.5 36.5t-40.5 13.5q-25 0 -40 -13.5t-15 -36.5z" />
    <glyph glyph-name="seveninferior" unicode="&#x2087;" horiz-adv-x="308" 
d="M179 176h-166v89h279v-89l-132 -295h-113z" />
    <glyph glyph-name="eightinferior" unicode="&#x2088;" horiz-adv-x="339" 
d="M28 158q0 49 40 81t102 32t102 -32t40 -81q0 -25 -11.5 -45.5t-32.5 -34.5q26 -14 40 -36.5t14 -49.5q0 -50 -43.5 -83.5t-108.5 -33.5t-108.5 33.5t-43.5 83.5q0 27 14 49.5t40 36.5q-21 14 -32.5 34.5t-11.5 45.5zM170 115q22 0 34.5 9t12.5 26q0 15 -13 24.5t-34 9.5
q-22 0 -35 -9.5t-13 -25.5t13 -25t35 -9zM170 -35q21 0 35.5 11t14.5 28t-14.5 28t-35.5 11t-36.5 -11.5t-15.5 -27.5t15.5 -27.5t36.5 -11.5z" />
    <glyph glyph-name="nineinferior" unicode="&#x2089;" horiz-adv-x="332" 
d="M283 18l-78 -137h-111l68 118h-8q-62 0 -101 36.5t-39 92.5q0 61 44 102t110 41t107.5 -39.5t41.5 -102.5q0 -29 -7.5 -53t-26.5 -58zM224 128q0 24 -15 37.5t-41 13.5q-25 0 -40 -13.5t-15 -37.5q0 -23 15 -36.5t40 -13.5t40.5 13.5t15.5 36.5z" />
    <glyph glyph-name="colonmonetary" unicode="&#x20a1;" horiz-adv-x="727" 
d="M549 264h146q-18 -120 -105.5 -195.5t-211.5 -78.5l-34 -89h-119l40 104q-10 3 -21.5 7.5t-26.5 11.5l-47 -123h-119l73 191q-42 46 -64 104.5t-22 123.5q0 132 84 224.5t215 104.5l34 90h119l-38 -99q14 -3 26.5 -7t22.5 -8l44 114h119l-67 -175q39 -37 64 -85t34 -103
h-146q-17 69 -64.5 107.5t-115.5 38.5q-84 0 -136 -55.5t-52 -146.5t52 -146t136 -55q69 0 116.5 38t63.5 107z" />
    <glyph glyph-name="uni20A9" unicode="&#x20a9;" horiz-adv-x="1045" 
d="M194 178h-150v94h122l-16 51h-106v94h78l-68 223h149l128 -449l132 324l-47 125h151l156 -433l124 433h143l-67 -223h78v-94h-107l-15 -51h122v-94h-150l-54 -178h-139l-130 343l-141 -343h-139z" />
    <glyph glyph-name="newsheqel" unicode="&#x20aa;" horiz-adv-x="695" 
d="M185 0h-116v555h234q80 0 119.5 -39.5t39.5 -119.5v-196h-88v155q0 33 -18 49.5t-53 16.5h-118v-421zM634 555v-356q0 -100 -49.5 -149.5t-149.5 -49.5h-195v355h88v-222h107q43 0 62.5 16t19.5 51v355h117z" />
    <glyph glyph-name="dong" unicode="&#x20ab;" horiz-adv-x="658" 
d="M557 552v-552h-97l-26 51q-30 -30 -69 -45.5t-84 -15.5q-104 0 -175.5 74t-71.5 186t71.5 186t175.5 74q41 0 76.5 -13t62.5 -38v93h-214v94h214v44h137v-44h83v-94h-83zM301 112q57 0 93 38t36 100t-36 100.5t-93 38.5t-93 -38.5t-36 -100.5t36 -100t93 -38zM557 -161
h-451v99h451v-99z" />
    <glyph glyph-name="Euro" unicode="&#x20ac;" horiz-adv-x="693" 
d="M121 200h-85v94h65q-1 4 -1 9.5v16.5v15.5t1 9.5h-65v94h84q35 97 119 154t192 57q71 0 133 -24.5t108 -71.5l-76 -99q-38 35 -80 53t-88 18q-52 0 -93.5 -22.5t-67.5 -64.5h221l-25 -94h-225q-1 -4 -1 -9v-16v-16.5t1 -9.5h211l-24 -94h-157q25 -41 66.5 -63.5
t93.5 -22.5q46 0 88 18t80 53l76 -99q-46 -47 -108 -71.5t-133 -24.5q-108 0 -192 57t-118 153z" />
    <glyph glyph-name="uni20AD" unicode="&#x20ad;" horiz-adv-x="700" 
d="M98 268h-74v114h74v258h140v-252h64l213 252h162v-4l-217 -254h142v-114h-126l208 -263v-5h-173l-204 265h-69v-265h-140v268z" />
    <glyph glyph-name="uni20AE" unicode="&#x20ae;" horiz-adv-x="635" 
d="M248 130l-167 -42v94l167 42v51l-167 -42v94l167 42v142h-221v129h581v-129h-220v-106l167 42v-94l-167 -42v-51l167 42v-94l-167 -42v-166h-140v130z" />
    <glyph glyph-name="uni20B1" unicode="&#x20b1;" horiz-adv-x="748" 
d="M114 547v93h268q74 0 128.5 -23.5t84.5 -69.5h113v-114h-78v-13q0 -7 -0.5 -15.5t-1.5 -22.5h80v-114h-132q-33 -33 -82 -50.5t-112 -17.5h-128v-200h-140v268h-74v114h74v51h-74v114h74zM498 420q0 47 -28.5 71.5t-83.5 24.5h-132v-192h132q55 0 83.5 24.5t28.5 71.5z
" />
    <glyph glyph-name="uni20B4" unicode="&#x20b4;" horiz-adv-x="709" 
d="M99 201h-64v89h100q20 20 56 32.5t102 23.5l31 5h-289v89h425q1 7 1.5 11.5t0.5 9.5q0 31 -28 48.5t-75 17.5q-51 0 -80.5 -15t-29.5 -42h-143q0 81 70.5 130.5t183.5 49.5q111 0 178 -54t67 -144v-12h68v-89h-106q-21 -21 -57 -33.5t-107 -22.5l-35 -5h305v-89h-426
q-1 -9 -1.5 -13t-0.5 -8q0 -31 28 -48.5t75 -17.5q54 0 89 16t35 41h147q0 -79 -75 -130t-194 -51q-116 0 -183.5 55t-67.5 149v7z" />
    <glyph glyph-name="uni20B5" unicode="&#x20b5;" horiz-adv-x="726" 
d="M548 264h146q-16 -106 -88.5 -179t-178.5 -90v-94h-117v94q-121 19 -197 109t-76 216q0 125 76 215.5t197 109.5v94h117v-94q106 -17 178 -90t89 -179h-146q-17 69 -64.5 107.5t-115.5 38.5q-84 0 -136 -55.5t-52 -146.5t52 -146t136 -55q69 0 116.5 38t63.5 107z" />
    <glyph glyph-name="uni20B8" unicode="&#x20b8;" horiz-adv-x="661" 
d="M621 511h-581v129h581v-129zM261 311h-221v129h581v-129h-220v-311h-140v311z" />
    <glyph glyph-name="uni20B9" unicode="&#x20b9;" horiz-adv-x="620" 
d="M528 0h-204l-273 207v104h207q38 0 64 15.5t37 44.5h-308v104h304q-12 30 -37 45.5t-60 15.5h-207v104h534v-104h-121q11 -12 19.5 -27.5t14.5 -33.5h87v-104h-80q-14 -77 -78.5 -120.5t-165.5 -43.5h-11z" />
    <glyph glyph-name="uni20BA" unicode="&#x20ba;" horiz-adv-x="635" 
d="M108 172l-72 -24v94l72 24v51l-72 -24v94l72 24v229h140v-183l152 50v-94l-152 -50v-51l152 50v-94l-152 -50v-89h116q56 0 78 19t22 66v66h140v-78q0 -98 -54.5 -150t-158.5 -52h-283v172z" />
    <glyph glyph-name="uni20BC" unicode="&#x20bc;" horiz-adv-x="732" 
d="M296 505v135h140v-134q121 -17 185.5 -91t64.5 -197v-218h-140v212q0 67 -28.5 107.5t-86.5 54.5v-374h-130v374q-57 -14 -86 -54.5t-29 -107.5v-212h-140v218q0 123 64.5 197t185.5 90z" />
    <glyph glyph-name="uni20BD" unicode="&#x20bd;" horiz-adv-x="669" 
d="M252 159h131v-94h-131v-65h-140v65h-74v94h74v51h-74v114h74v316h268q122 0 190 -58t68 -162q0 -100 -67.5 -155t-190.5 -55h-128v-51zM496 420q0 47 -28.5 71.5t-83.5 24.5h-132v-192h132q55 0 83.5 24.5t28.5 71.5z" />
    <glyph glyph-name="uni2113" unicode="&#x2113;" horiz-adv-x="521" 
d="M337 125h94v-125h-88q-148 0 -224 84.5t-76 249.5q0 144 67 230t180 86q89 0 143.5 -52.5t54.5 -139.5q0 -97 -68.5 -160t-215.5 -104q18 -35 50 -52t83 -17zM282 527q-50 0 -76 -49t-26 -144v-22t1 -12q82 25 123.5 64t41.5 91q0 35 -16.5 53.5t-47.5 18.5z" />
    <glyph glyph-name="uni2116" unicode="&#x2116;" horiz-adv-x="1160" 
d="M1120 463q0 -82 -54.5 -134t-140.5 -52t-141 52t-55 134t55 134.5t141 52.5t140.5 -52.5t54.5 -134.5zM75 0v640h135l321 -416v416h135v-640h-135l-321 415v-415h-135zM846 463q0 -36 22 -58t57 -22q34 0 56 22.5t22 57.5q0 36 -21.5 58.5t-56.5 22.5t-57 -22.5
t-22 -58.5zM1104 129h-359v99h359v-99z" />
    <glyph glyph-name="trademark" unicode="&#x2122;" horiz-adv-x="903" 
d="M676 288h-100l-65 180l-19 -212h-99l34 384h125l77 -222l77 222h122l35 -384h-103l-20 218zM144 543h-125v97h349v-97h-122v-287h-102v287z" />
    <glyph glyph-name="ohm" unicode="&#x2126;" horiz-adv-x="734" 
d="M549 129h116v-129h-246v213q60 17 94.5 58.5t34.5 98.5q0 68 -50 110t-131 42t-131.5 -42t-50.5 -110q0 -57 35 -98.5t96 -58.5v-213h-246v129h116v11q-69 35 -106.5 94.5t-37.5 135.5q0 120 92.5 200t232.5 80t232.5 -80t92.5 -200q0 -77 -37 -136t-106 -93v-12z" />
    <glyph glyph-name="estimated" unicode="&#x212e;" horiz-adv-x="776" 
d="M752 314v-9h-583q-3 0 -4 -1t-1 -3v-176q0 -6 2 -11t6 -9q44 -46 101 -71t120 -25q67 0 127 28t105 79h52q-51 -59 -126 -92.5t-159 -33.5q-149 0 -254.5 95t-105.5 229t105.5 229t254.5 95t254.5 -95t105.5 -229zM620 328v178q0 6 -2 11.5t-7 9.5q-44 44 -100.5 68
t-117.5 24q-62 0 -119 -24.5t-101 -70.5q-5 -5 -7 -10t-2 -12v-174q0 -2 1.5 -3.5t3.5 -1.5h447q2 0 3 1.5t1 3.5z" />
    <glyph glyph-name="oneseventh" unicode="&#x2150;" horiz-adv-x="747" 
d="M198 640v-384h-103v288h-78l30 96h151zM246 0h-122l304 640h122zM618 295h-166v89h279v-89l-132 -295h-113z" />
    <glyph glyph-name="oneninth" unicode="&#x2151;" horiz-adv-x="771" 
d="M198 640v-384h-103v288h-78l30 96h151zM246 0h-122l304 640h122zM722 137l-78 -137h-111l68 118h-8q-62 0 -101 36.5t-39 92.5q0 61 44 102t110 41t107.5 -39.5t41.5 -102.5q0 -29 -7.5 -53t-26.5 -58zM663 247q0 24 -15 37.5t-41 13.5q-25 0 -40 -13.5t-15 -37.5
q0 -23 15 -36.5t40 -13.5t40.5 13.5t15.5 36.5z" />
    <glyph glyph-name="onethird" unicode="&#x2153;" horiz-adv-x="760" 
d="M198 640v-384h-103v288h-78l30 96h151zM246 0h-122l304 640h122zM691 197q24 -13 37 -36t13 -53q0 -48 -40.5 -81t-100.5 -33q-61 0 -101.5 33t-44.5 85h99q5 -15 17 -23.5t29 -8.5q20 0 31.5 9.5t11.5 26.5t-11 28t-29 11h-73v80h68q16 0 26 9t10 23q0 17 -10.5 27
t-27.5 10q-15 0 -25 -8t-15 -24h-99q3 52 42.5 85t96.5 33q61 0 99 -32.5t38 -84.5q0 -24 -10.5 -44t-30.5 -32z" />
    <glyph glyph-name="twothirds" unicode="&#x2154;" horiz-adv-x="859" 
d="M308 256h-280v89l132 107q24 19 31.5 31.5t7.5 30.5q0 17 -10.5 29t-26.5 12q-15 0 -25 -10.5t-12 -26.5h-101q-1 55 40.5 91.5t104.5 36.5q61 0 98.5 -34.5t37.5 -90.5q0 -37 -19.5 -69t-62.5 -66l-52 -41h137v-89zM345 0h-122l304 640h122zM790 197q24 -13 37 -36
t13 -53q0 -48 -40.5 -81t-100.5 -33q-61 0 -101.5 33t-44.5 85h99q5 -15 17 -23.5t29 -8.5q20 0 31.5 9.5t11.5 26.5t-11 28t-29 11h-73v80h68q16 0 26 9t10 23q0 17 -10.5 27t-27.5 10q-15 0 -25 -8t-15 -24h-99q3 52 42.5 85t96.5 33q61 0 99 -32.5t38 -84.5
q0 -24 -10.5 -44t-30.5 -32z" />
    <glyph glyph-name="onefifth" unicode="&#x2155;" horiz-adv-x="765" 
d="M198 640v-384h-103v288h-78l30 96h151zM246 0h-122l304 640h122zM556 157h-91l23 227h235v-89h-154l-5 -55q14 5 27.5 7.5t26.5 2.5q58 0 94 -33t36 -87q0 -60 -39.5 -98t-101.5 -38t-103 33.5t-45 86.5h101q1 -15 13 -24.5t30 -9.5q22 0 35 12.5t13 33.5q0 20 -14.5 33
t-36.5 13q-14 0 -25.5 -4t-18.5 -11z" />
    <glyph glyph-name="twofifths" unicode="&#x2156;" horiz-adv-x="864" 
d="M308 256h-280v89l132 107q24 19 31.5 31.5t7.5 30.5q0 17 -10.5 29t-26.5 12q-15 0 -25 -10.5t-12 -26.5h-101q-1 55 40.5 91.5t104.5 36.5q61 0 98.5 -34.5t37.5 -90.5q0 -37 -19.5 -69t-62.5 -66l-52 -41h137v-89zM345 0h-122l304 640h122zM655 157h-91l23 227h235v-89
h-154l-5 -55q14 5 27.5 7.5t26.5 2.5q58 0 94 -33t36 -87q0 -60 -39.5 -98t-101.5 -38t-103 33.5t-45 86.5h101q1 -15 13 -24.5t30 -9.5q22 0 35 12.5t13 33.5q0 20 -14.5 33t-36.5 13q-14 0 -25.5 -4t-18.5 -11z" />
    <glyph glyph-name="threefifths" unicode="&#x2157;" horiz-adv-x="851" 
d="M252 453q24 -13 37 -36t13 -53q0 -48 -40.5 -81t-100.5 -33q-61 0 -101.5 33t-44.5 85h99q5 -15 17 -23.5t29 -8.5q20 0 31.5 9.5t11.5 26.5t-11 28t-29 11h-73v80h68q16 0 26 9t10 23q0 17 -10.5 27t-27.5 10q-15 0 -25 -8t-15 -24h-99q3 52 42.5 85t96.5 33
q61 0 99 -32.5t38 -84.5q0 -24 -10.5 -44t-30.5 -32zM332 0h-122l304 640h122zM642 157h-91l23 227h235v-89h-154l-5 -55q14 5 27.5 7.5t26.5 2.5q58 0 94 -33t36 -87q0 -60 -39.5 -98t-101.5 -38t-103 33.5t-45 86.5h101q1 -15 13 -24.5t30 -9.5q22 0 35 12.5t13 33.5
q0 20 -14.5 33t-36.5 13q-14 0 -25.5 -4t-18.5 -11z" />
    <glyph glyph-name="fourfifths" unicode="&#x2158;" horiz-adv-x="891" 
d="M287 256h-99v70h-172v86l164 228h107v-228h61v-86h-61v-70zM192 517l-76 -105h76v105zM372 0h-122l304 640h122zM682 157h-91l23 227h235v-89h-154l-5 -55q14 5 27.5 7.5t26.5 2.5q58 0 94 -33t36 -87q0 -60 -39.5 -98t-101.5 -38t-103 33.5t-45 86.5h101q1 -15 13 -24.5
t30 -9.5q22 0 35 12.5t13 33.5q0 20 -14.5 33t-36.5 13q-14 0 -25.5 -4t-18.5 -11z" />
    <glyph glyph-name="onesixth" unicode="&#x2159;" horiz-adv-x="771" 
d="M198 640v-384h-103v288h-78l30 96h151zM246 0h-122l304 640h122zM488 247l78 137h110l-68 -119h10q62 0 101 -36t39 -92q0 -61 -44.5 -102t-110.5 -41t-107.5 39.5t-41.5 102.5q0 29 7.5 53t26.5 58zM548 137q0 -24 14.5 -37.5t40.5 -13.5t40.5 13.5t14.5 37.5
q0 23 -14.5 36.5t-40.5 13.5q-25 0 -40 -13.5t-15 -36.5z" />
    <glyph glyph-name="fivesixths" unicode="&#x215a;" horiz-adv-x="862" 
d="M117 413h-91l23 227h235v-89h-154l-5 -55q14 5 27.5 7.5t26.5 2.5q58 0 94 -33t36 -87q0 -60 -39.5 -98t-101.5 -38t-103 33.5t-45 86.5h101q1 -15 13 -24.5t30 -9.5q22 0 35 12.5t13 33.5q0 20 -14.5 33t-36.5 13q-14 0 -25.5 -4t-18.5 -11zM337 0h-122l304 640h122z
M579 247l78 137h110l-68 -119h10q62 0 101 -36t39 -92q0 -61 -44.5 -102t-110.5 -41t-107.5 39.5t-41.5 102.5q0 29 7.5 53t26.5 58zM639 137q0 -24 14.5 -37.5t40.5 -13.5t40.5 13.5t14.5 37.5q0 23 -14.5 36.5t-40.5 13.5q-25 0 -40 -13.5t-15 -36.5z" />
    <glyph glyph-name="oneeighth" unicode="&#x215b;" horiz-adv-x="778" 
d="M198 640v-384h-103v288h-78l30 96h151zM246 0h-122l304 640h122zM467 277q0 49 40 81t102 32t102 -32t40 -81q0 -25 -11.5 -45.5t-32.5 -34.5q26 -14 40 -36.5t14 -49.5q0 -50 -43.5 -83.5t-108.5 -33.5t-108.5 33.5t-43.5 83.5q0 27 14 49.5t40 36.5q-21 14 -32.5 34.5
t-11.5 45.5zM609 234q22 0 34.5 9t12.5 26q0 15 -13 24.5t-34 9.5q-22 0 -35 -9.5t-13 -25.5t13 -25t35 -9zM609 84q21 0 35.5 11t14.5 28t-14.5 28t-35.5 11t-36.5 -11.5t-15.5 -27.5t15.5 -27.5t36.5 -11.5z" />
    <glyph glyph-name="threeeighths" unicode="&#x215c;" horiz-adv-x="864" 
d="M252 453q24 -13 37 -36t13 -53q0 -48 -40.5 -81t-100.5 -33q-61 0 -101.5 33t-44.5 85h99q5 -15 17 -23.5t29 -8.5q20 0 31.5 9.5t11.5 26.5t-11 28t-29 11h-73v80h68q16 0 26 9t10 23q0 17 -10.5 27t-27.5 10q-15 0 -25 -8t-15 -24h-99q3 52 42.5 85t96.5 33
q61 0 99 -32.5t38 -84.5q0 -24 -10.5 -44t-30.5 -32zM332 0h-122l304 640h122zM553 277q0 49 40 81t102 32t102 -32t40 -81q0 -25 -11.5 -45.5t-32.5 -34.5q26 -14 40 -36.5t14 -49.5q0 -50 -43.5 -83.5t-108.5 -33.5t-108.5 33.5t-43.5 83.5q0 27 14 49.5t40 36.5
q-21 14 -32.5 34.5t-11.5 45.5zM695 234q22 0 34.5 9t12.5 26q0 15 -13 24.5t-34 9.5q-22 0 -35 -9.5t-13 -25.5t13 -25t35 -9zM695 84q21 0 35.5 11t14.5 28t-14.5 28t-35.5 11t-36.5 -11.5t-15.5 -27.5t15.5 -27.5t36.5 -11.5z" />
    <glyph glyph-name="fiveeighths" unicode="&#x215d;" horiz-adv-x="869" 
d="M117 413h-91l23 227h235v-89h-154l-5 -55q14 5 27.5 7.5t26.5 2.5q58 0 94 -33t36 -87q0 -60 -39.5 -98t-101.5 -38t-103 33.5t-45 86.5h101q1 -15 13 -24.5t30 -9.5q22 0 35 12.5t13 33.5q0 20 -14.5 33t-36.5 13q-14 0 -25.5 -4t-18.5 -11zM337 0h-122l304 640h122z
M558 277q0 49 40 81t102 32t102 -32t40 -81q0 -25 -11.5 -45.5t-32.5 -34.5q26 -14 40 -36.5t14 -49.5q0 -50 -43.5 -83.5t-108.5 -33.5t-108.5 33.5t-43.5 83.5q0 27 14 49.5t40 36.5q-21 14 -32.5 34.5t-11.5 45.5zM700 234q22 0 34.5 9t12.5 26q0 15 -13 24.5t-34 9.5
q-22 0 -35 -9.5t-13 -25.5t13 -25t35 -9zM700 84q21 0 35.5 11t14.5 28t-14.5 28t-35.5 11t-36.5 -11.5t-15.5 -27.5t15.5 -27.5t36.5 -11.5z" />
    <glyph glyph-name="seveneighths" unicode="&#x215e;" horiz-adv-x="821" 
d="M179 551h-166v89h279v-89l-132 -295h-113zM289 0h-122l304 640h122zM510 277q0 49 40 81t102 32t102 -32t40 -81q0 -25 -11.5 -45.5t-32.5 -34.5q26 -14 40 -36.5t14 -49.5q0 -50 -43.5 -83.5t-108.5 -33.5t-108.5 33.5t-43.5 83.5q0 27 14 49.5t40 36.5
q-21 14 -32.5 34.5t-11.5 45.5zM652 234q22 0 34.5 9t12.5 26q0 15 -13 24.5t-34 9.5q-22 0 -35 -9.5t-13 -25.5t13 -25t35 -9zM652 84q21 0 35.5 11t14.5 28t-14.5 28t-35.5 11t-36.5 -11.5t-15.5 -27.5t15.5 -27.5t36.5 -11.5z" />
    <glyph glyph-name="arrowleft" unicode="&#x2190;" horiz-adv-x="641" 
d="M186 62l-117 219l117 219h130l-87 -162h343v-114h-343l87 -162h-130z" />
    <glyph glyph-name="arrowup" unicode="&#x2191;" horiz-adv-x="584" 
d="M73 415l219 117l219 -117v-130l-162 87v-343h-114v343l-162 -87v130z" />
    <glyph glyph-name="arrowright" unicode="&#x2192;" horiz-adv-x="641" 
d="M455 500l117 -219l-117 -219h-130l87 162h-343v114h343l-87 162h130z" />
    <glyph glyph-name="arrowdown" unicode="&#x2193;" horiz-adv-x="584" 
d="M511 145l-219 -117l-219 117v130l162 -87v343h114v-343l162 87v-130z" />
    <glyph glyph-name="uni2194" unicode="&#x2194;" horiz-adv-x="841" 
d="M186 62l-117 219l117 219h130l-87 -162h383l-87 162h130l117 -219l-117 -219h-130l87 162h-383l87 -162h-130z" />
    <glyph glyph-name="uni2195" unicode="&#x2195;" horiz-adv-x="644" 
d="M541 46l-219 -117l-219 117v130l162 -87v383l-162 -87v130l219 117l219 -117v-130l-162 87v-383l162 87v-130z" />
    <glyph glyph-name="uni2196" unicode="&#x2196;" horiz-adv-x="596" 
d="M72 221l73 237l237 73l92 -92l-177 -53l243 -243l-80 -80l-243 243l-53 -177z" />
    <glyph glyph-name="uni2197" unicode="&#x2197;" horiz-adv-x="596" 
d="M215 530l237 -72l72 -237l-92 -92l-53 175l-242 -242l-81 81l242 242l-175 53z" />
    <glyph glyph-name="uni2198" unicode="&#x2198;" horiz-adv-x="598" 
d="M525 340l-72 -237l-237 -72l-92 92l175 53l-242 242l81 81l242 -242l53 175z" />
    <glyph glyph-name="uni2199" unicode="&#x2199;" horiz-adv-x="596" 
d="M381 30l-237 72l-72 237l92 92l53 -175l242 242l81 -81l-242 -242l175 -53z" />
    <glyph glyph-name="partialdiff" unicode="&#x2202;" horiz-adv-x="556" 
d="M168 640h150l135 -217q40 -63 56.5 -107t16.5 -94q0 -102 -68 -167t-176 -65t-179 66t-71 167q0 95 64.5 155.5t167.5 60.5q9 0 18 -0.5t17 -2.5zM167 223q0 -50 31.5 -79.5t83.5 -29.5q53 0 84.5 29.5t31.5 79.5q0 49 -31.5 78.5t-84.5 29.5q-52 0 -83.5 -29.5
t-31.5 -78.5z" />
    <glyph glyph-name="increment" unicode="&#x2206;" horiz-adv-x="721" 
d="M652 0h-583v125l219 515h145l219 -515v-125zM358 476l-145 -351h289z" />
    <glyph glyph-name="product" unicode="&#x220f;" horiz-adv-x="723" 
d="M75 -134v774h573v-774h-140v650h-293v-650h-140z" />
    <glyph glyph-name="summation" unicode="&#x2211;" horiz-adv-x="551" 
d="M538 -5v-129h-516v129l227 266l-214 250v129h494v-129h-315l172 -201v-99l-185 -216h337z" />
    <glyph glyph-name="minus" unicode="&#x2212;" 
d="M515 224h-450v114h450v-114z" />
    <glyph glyph-name="uni2215" unicode="&#x2215;" horiz-adv-x="204" 
d="M11 0h-122l304 640h122z" />
    <glyph glyph-name="radical" unicode="&#x221a;" horiz-adv-x="646" 
d="M122 224h-99v114h177l96 -193l210 495h128l-271 -640h-128z" />
    <glyph glyph-name="infinity" unicode="&#x221e;" horiz-adv-x="765" 
d="M382 142q-25 -35 -65 -54t-89 -20q-86 1 -142 57.5t-56 143.5t56.5 143.5t141.5 56.5q48 1 88 -18t67 -55q25 35 65 54t89 20q86 -1 142 -57.5t56 -143.5t-56.5 -143.5t-141.5 -56.5q-48 -1 -88 18t-67 55zM147 269q0 -42 25 -68t64 -26t63.5 26t24.5 68t-24.5 68.5
t-63.5 26.5t-64 -26.5t-25 -68.5zM618 269q0 42 -25 68t-64 26t-63.5 -26t-24.5 -68t24.5 -68.5t63.5 -26.5t64 26.5t25 68.5z" />
    <glyph glyph-name="integral" unicode="&#x222b;" horiz-adv-x="350" 
d="M333 518h-48q-38 0 -56 -13t-18 -40v-482q0 -89 -44.5 -131t-141.5 -42h-73v122h48q38 0 56 13t18 40v482q0 89 44.5 131t141.5 42h73v-122z" />
    <glyph glyph-name="approxequal" unicode="&#x2248;" 
d="M151 303h-99q0 90 35.5 138.5t97.5 48.5q30 0 60.5 -11.5t79.5 -45.5q29 -20 41.5 -26t22.5 -6q19 0 29.5 20.5t10.5 58.5h99q0 -90 -35.5 -138.5t-97.5 -48.5q-30 0 -60.5 11.5t-79.5 45.5q-29 20 -41.5 26t-22.5 6q-19 0 -29.5 -20.5t-10.5 -58.5zM151 83h-99
q0 90 35.5 138.5t97.5 48.5q30 0 60.5 -11.5t79.5 -45.5q29 -20 41.5 -26t22.5 -6q19 0 29.5 20.5t10.5 58.5h99q0 -90 -35.5 -138.5t-97.5 -48.5q-30 0 -60.5 11.5t-79.5 46.5q-29 20 -41 25.5t-21 5.5q-20 0 -31 -20t-11 -59z" />
    <glyph glyph-name="notequal" unicode="&#x2260;" 
d="M125 124h-60v114h139l58 86h-197v114h276l60 88h114l-60 -88h60v-114h-139l-58 -86h197v-114h-276l-60 -88h-114z" />
    <glyph glyph-name="lessequal" unicode="&#x2264;" 
d="M515 0h-450v114h360l-360 152v110l450 189v-124l-305 -118l305 -119v-204z" />
    <glyph glyph-name="greaterequal" unicode="&#x2265;" 
d="M515 0h-450v200l305 118l-305 119v128l450 -190v-110l-360 -151h360v-114z" />
    <glyph glyph-name="lozenge" unicode="&#x25ca;" horiz-adv-x="510" 
d="M191 0l-171 320l171 320h128l171 -320l-171 -320h-128zM255 120l107 200l-107 200l-107 -200z" />
    <glyph glyph-name="kgreenlandic.case" horiz-adv-x="807" 
d="M75 0v640h140v-252h64l213 252h162v-4l-256 -299l263 -332v-5h-173l-204 265h-69v-265h-140zM850 640l-100 -150h-140l124 150h116z" />
    <glyph glyph-name="napostrophe.case" horiz-adv-x="901" 
d="M235 0v640h135l321 -416v416h135v-640h-135l-321 415v-415h-135zM200 640l-100 -150h-140l124 150h116z" />
    <glyph glyph-name="i.dot" horiz-adv-x="271" 
d="M67 558v132h137v-132h-137zM67 0v500h137v-500h-137z" />
    <glyph glyph-name="caron.alt" horiz-adv-x="499" 
d="M182 490v200h135l-35 -200h-100z" />
    <glyph glyph-name="revcommaaccent" horiz-adv-x="500" 
d="M420 690l-100 -150h-140l124 150h116z" />
    <glyph glyph-name="circumflexacute" horiz-adv-x="500" 
d="M362 640l50 150h128l-74 -150h-104zM417 540h-111l-56 74l-57 -74h-111l104 150h127z" />
    <glyph glyph-name="circumflexgrave" horiz-adv-x="500" 
d="M278 790h134l90 -150h-110zM417 540h-111l-56 74l-57 -74h-111l104 150h127z" />
    <glyph glyph-name="circumflexhookabove" horiz-adv-x="500" 
d="M507 742q0 -32 -24.5 -55t-73.5 -37l-41 -11v68l29 9q11 4 16.5 9.5t5.5 13.5q0 9 -9.5 14t-25.5 5q-19 0 -28.5 -6.5t-10.5 -19.5h-89q1 45 35.5 71t94.5 26q56 0 88.5 -23.5t32.5 -63.5zM417 540h-111l-56 74l-57 -74h-111l104 150h127z" />
    <glyph glyph-name="circumflextilde" horiz-adv-x="500" 
d="M194 828q19 0 36.5 -9t42.5 -35q12 -12 16.5 -15.5t8.5 -3.5q10 0 14.5 12t4.5 40h80q0 -66 -23 -99t-69 -33q-19 0 -36 9t-41 35q-12 12 -17 15.5t-9 3.5q-11 0 -15.5 -12t-4.5 -40h-80q0 66 23 99t69 33zM417 540h-111l-56 63l-57 -63h-111l104 130h127z" />
    <glyph glyph-name="breveacute" horiz-adv-x="500" 
d="M192 710l100 100h140l-124 -100h-116zM250 540q-69 0 -108 39.5t-39 110.5h93q0 -34 13.5 -50.5t40.5 -16.5t40.5 16.5t13.5 50.5h93q0 -71 -39 -110.5t-108 -39.5z" />
    <glyph glyph-name="brevegrave" horiz-adv-x="500" 
d="M68 810h144l100 -100h-120zM250 540q-69 0 -108 39.5t-39 110.5h93q0 -34 13.5 -50.5t40.5 -16.5t40.5 16.5t13.5 50.5h93q0 -71 -39 -110.5t-108 -39.5z" />
    <glyph glyph-name="brevehookabove" horiz-adv-x="500" 
d="M370 751q0 -32 -22.5 -51t-75.5 -33l-41 -11v55l29 9q11 4 16.5 9.5t5.5 12.5q0 9 -9.5 14t-25.5 5q-19 0 -28.5 -6.5t-10.5 -19.5h-89q1 44 35.5 69.5t94.5 25.5q56 0 88.5 -21.5t32.5 -57.5zM250 540q-68 0 -107.5 32.5t-39.5 90.5h86q0 -25 16 -38.5t45 -13.5t45 13.5
t16 38.5h86q0 -58 -39.5 -90.5t-107.5 -32.5z" />
    <glyph glyph-name="brevetilde" horiz-adv-x="500" 
d="M194 830q19 0 37 -9.5t43 -36.5q12 -12 16.5 -15.5t8.5 -3.5q10 0 15 13t5 41h78q0 -67 -23 -100.5t-69 -33.5q-19 0 -36.5 9t-41.5 36q-12 13 -17.5 16.5t-9.5 3.5q-11 0 -15.5 -12.5t-4.5 -41.5h-78q0 67 23 100.5t69 33.5zM250 540q-68 0 -107.5 34.5t-39.5 95.5h89
q0 -25 14.5 -38t43.5 -13t43.5 13t14.5 38h89q0 -61 -39.5 -95.5t-107.5 -34.5z" />
    <glyph glyph-name="zero.tlf" 
d="M15 320q0 149 75.5 239.5t199.5 90.5q125 0 200.5 -90.5t75.5 -239.5q0 -148 -76 -239t-200 -91t-199.5 91t-75.5 239zM422 319q0 94 -35 148t-97 54q-61 0 -96.5 -54.5t-35.5 -147.5t35 -146.5t97 -53.5q63 0 97.5 52.5t34.5 147.5z" />
    <glyph glyph-name="one.tlf" 
d="M375 129h146v-129h-442v129h158v382h-158l40 129h256v-511z" />
    <glyph glyph-name="two.tlf" 
d="M518 0h-460v120l220 181q55 46 73 73.5t18 62.5q0 40 -25 65t-65 25q-39 0 -64 -24.5t-28 -65.5h-137q0 93 67 153t171 60q100 0 161.5 -56t61.5 -148q0 -62 -34 -116t-116 -121l-109 -89h266v-120z" />
    <glyph glyph-name="three.tlf" 
d="M426 329q44 -22 68 -61t24 -90q0 -79 -66.5 -133.5t-166.5 -54.5q-101 0 -168.5 55t-73.5 142h135q6 -37 34 -58.5t71 -21.5q46 0 73.5 21.5t27.5 58.5t-25.5 60t-67.5 23h-119v110h110q38 0 62.5 21t24.5 53q0 36 -25.5 57.5t-65.5 21.5t-65.5 -21t-31.5 -59h-135
q6 87 71 142t162 55q99 0 161.5 -52.5t62.5 -136.5q0 -43 -20 -77.5t-57 -54.5z" />
    <glyph glyph-name="four.tlf" 
d="M465 0h-134v129h-308v116l295 395h147v-395h98v-116h-98v-129zM336 479l-175 -234h175v234z" />
    <glyph glyph-name="five.tlf" 
d="M193 264h-123l38 376h385v-120h-274l-13 -127q26 12 53.5 18t54.5 6q97 0 157 -56t60 -147q0 -99 -64 -161.5t-166 -62.5q-101 0 -167.5 54.5t-72.5 142.5h136q4 -36 31.5 -58t67.5 -22q46 0 74.5 28t28.5 74q0 45 -29.5 73t-77.5 28q-32 0 -58 -12t-41 -34z" />
    <glyph glyph-name="six.tlf" 
d="M119 423l135 217h150l-131 -204q8 2 17 2.5t18 0.5q103 0 167.5 -60.5t64.5 -155.5q0 -101 -71 -167t-179 -66t-176 65t-68 167q0 50 16.5 94t56.5 107zM174 223q0 -50 31.5 -79.5t84.5 -29.5q52 0 83.5 29.5t31.5 79.5q0 49 -31.5 78.5t-83.5 29.5q-53 0 -84.5 -29.5
t-31.5 -78.5z" />
    <glyph glyph-name="seven.tlf" 
d="M363 520h-306v120h458v-120l-235 -520h-152z" />
    <glyph glyph-name="eight.tlf" 
d="M59 467q0 80 65.5 131.5t165.5 51.5t165.5 -52t65.5 -131q0 -44 -21 -79t-60 -58q47 -25 72.5 -63.5t25.5 -85.5q0 -83 -70.5 -137t-177.5 -54q-108 0 -178 54t-70 137q0 48 25 86t72 63q-39 23 -59.5 58t-20.5 79zM290 380q48 0 75 20.5t27 56.5q0 34 -27.5 54.5
t-74.5 20.5q-48 0 -75.5 -20.5t-27.5 -55.5t27.5 -55.5t75.5 -20.5zM290 112q50 0 80 23t30 62q0 37 -30.5 60.5t-79.5 23.5q-48 0 -80 -24t-32 -60q0 -38 31 -61.5t81 -23.5z" />
    <glyph glyph-name="nine.tlf" 
d="M462 217l-135 -217h-151l131 203q-8 -2 -16.5 -2.5t-17.5 -0.5q-103 0 -167.5 61t-64.5 156q0 101 71 167t179 66t176 -65t68 -167q0 -48 -16.5 -92.5t-56.5 -108.5zM407 417q0 50 -31.5 79.5t-84.5 29.5q-52 0 -83.5 -29.5t-31.5 -79.5q0 -49 31.5 -78.5t83.5 -29.5
t84 29.5t32 78.5z" />
    <glyph glyph-name="zero.posf" horiz-adv-x="613" 
d="M47 258q0 118 72 192.5t187 74.5q116 0 188 -74.5t72 -192.5t-72.5 -193t-187.5 -75q-114 0 -186.5 75.5t-72.5 192.5zM428 257q0 65 -32.5 103.5t-89.5 38.5q-56 0 -89 -39t-33 -103t33 -102.5t89 -38.5q57 0 89.5 38t32.5 103z" />
    <glyph glyph-name="one.posf" horiz-adv-x="365" 
d="M291 515v-515h-138v386h-128l40 129h226z" />
    <glyph glyph-name="two.posf" horiz-adv-x="550" 
d="M502 0h-454v150l243 130q33 18 47.5 34t14.5 35q0 24 -22 38.5t-59 14.5q-42 0 -67 -20.5t-28 -56.5h-137q0 89 65 144.5t172 55.5q99 0 158.5 -45.5t59.5 -120.5q0 -52 -38 -93.5t-127 -89.5l-103 -56h275v-120z" />
    <glyph glyph-name="three.posf" horiz-adv-x="541" 
d="M407 198q44 -23 68 -62.5t24 -90.5q0 -81 -65.5 -135.5t-163.5 -54.5q-99 0 -165.5 55t-72.5 142h135q6 -37 33 -58.5t68 -21.5q45 0 71 22t26 60t-24.5 61.5t-64.5 23.5h-119v110h110q36 0 59.5 22t23.5 56q0 37 -24 59t-63 22q-38 0 -62.5 -21t-30.5 -59h-135
q6 87 69.5 142t159.5 55q97 0 158.5 -53t61.5 -138q0 -45 -20 -80t-57 -56z" />
    <glyph glyph-name="four.posf" horiz-adv-x="591" 
d="M469 -135h-134v135h-308v116l295 399h147v-399h98v-116h-98v-135zM340 353l-175 -237h175v237z" />
    <glyph glyph-name="five.posf" horiz-adv-x="550" 
d="M176 133h-123l38 382h385v-120h-274l-13 -133q26 12 53.5 18t54.5 6q97 0 157 -56.5t60 -148.5q0 -100 -64 -163t-166 -63q-101 0 -167.5 54.5t-72.5 142.5h136q4 -36 31.5 -58t67.5 -22q47 0 75 28.5t28 75.5q0 46 -29.5 74.5t-77.5 28.5q-32 0 -58 -12t-41 -34z" />
    <glyph glyph-name="six.posf" horiz-adv-x="556" 
d="M105 423l135 217h150l-131 -204q8 2 17 2.5t18 0.5q103 0 167.5 -60.5t64.5 -155.5q0 -101 -71 -167t-179 -66t-176 65t-68 167q0 50 16.5 94t56.5 107zM160 223q0 -50 31.5 -79.5t84.5 -29.5q52 0 83.5 29.5t31.5 79.5q0 49 -31.5 78.5t-83.5 29.5q-53 0 -84.5 -29.5
t-31.5 -78.5z" />
    <glyph glyph-name="seven.posf" horiz-adv-x="506" 
d="M327 395h-306v120h458v-120l-235 -530h-152z" />
    <glyph glyph-name="eight.posf" horiz-adv-x="575" 
d="M57 467q0 80 65.5 131.5t165.5 51.5t165.5 -52t65.5 -131q0 -44 -21 -79t-60 -58q47 -25 72.5 -63.5t25.5 -85.5q0 -83 -70.5 -137t-177.5 -54q-108 0 -178 54t-70 137q0 48 25 86t72 63q-39 23 -59.5 58t-20.5 79zM288 380q48 0 75 20.5t27 56.5q0 34 -27.5 54.5
t-74.5 20.5q-48 0 -75.5 -20.5t-27.5 -55.5t27.5 -55.5t75.5 -20.5zM288 112q50 0 80 23t30 62q0 37 -30.5 60.5t-79.5 23.5q-48 0 -80 -24t-32 -60q0 -38 31 -61.5t81 -23.5z" />
    <glyph glyph-name="nine.posf" horiz-adv-x="556" 
d="M451 92l-135 -226h-151l132 212q-8 -1 -17 -2t-18 -1q-103 0 -167.5 61t-64.5 156q0 101 71 167t179 66t176 -65t68 -167q0 -46 -16.5 -90t-56.5 -111zM396 292q0 50 -31.5 79.5t-84.5 29.5q-52 0 -83.5 -29.5t-31.5 -79.5q0 -49 31.5 -78.5t83.5 -29.5t84 29.5t32 78.5z
" />
    <glyph glyph-name="zero.numerator" horiz-adv-x="381" 
d="M18 448q0 89 47.5 143.5t124.5 54.5q78 0 125.5 -54.5t47.5 -143.5q0 -88 -48 -143t-125 -55q-76 0 -124 55t-48 143zM256 447q0 47 -17.5 75t-48.5 28q-30 0 -48 -28.5t-18 -74.5t18 -73.5t48 -27.5q32 0 49 26.5t17 74.5z" />
    <glyph glyph-name="one.numerator" horiz-adv-x="235" 
d="M198 640v-384h-103v288h-78l30 96h151z" />
    <glyph glyph-name="two.numerator" horiz-adv-x="334" 
d="M308 256h-280v89l132 107q24 19 31.5 31.5t7.5 30.5q0 17 -10.5 29t-26.5 12q-15 0 -25 -10.5t-12 -26.5h-101q-1 55 40.5 91.5t104.5 36.5q61 0 98.5 -34.5t37.5 -90.5q0 -37 -19.5 -69t-62.5 -66l-52 -41h137v-89z" />
    <glyph glyph-name="three.numerator" horiz-adv-x="321" 
d="M252 453q24 -13 37 -36t13 -53q0 -48 -40.5 -81t-100.5 -33q-61 0 -101.5 33t-44.5 85h99q5 -15 17 -23.5t29 -8.5q20 0 31.5 9.5t11.5 26.5t-11 28t-29 11h-73v80h68q16 0 26 9t10 23q0 17 -10.5 27t-27.5 10q-15 0 -25 -8t-15 -24h-99q3 52 42.5 85t96.5 33
q61 0 99 -32.5t38 -84.5q0 -24 -10.5 -44t-30.5 -32z" />
    <glyph glyph-name="four.numerator" horiz-adv-x="361" 
d="M287 256h-99v70h-172v86l164 228h107v-228h61v-86h-61v-70zM192 517l-76 -105h76v105z" />
    <glyph glyph-name="five.numerator" horiz-adv-x="326" 
d="M117 413h-91l23 227h235v-89h-154l-5 -55q14 5 27.5 7.5t26.5 2.5q58 0 94 -33t36 -87q0 -60 -39.5 -98t-101.5 -38t-103 33.5t-45 86.5h101q1 -15 13 -24.5t30 -9.5q22 0 35 12.5t13 33.5q0 20 -14.5 33t-36.5 13q-14 0 -25.5 -4t-18.5 -11z" />
    <glyph glyph-name="six.numerator" horiz-adv-x="332" 
d="M49 503l78 137h110l-68 -119h10q62 0 101 -36t39 -92q0 -61 -44.5 -102t-110.5 -41t-107.5 39.5t-41.5 102.5q0 29 7.5 53t26.5 58zM109 393q0 -24 14.5 -37.5t40.5 -13.5t40.5 13.5t14.5 37.5q0 23 -14.5 36.5t-40.5 13.5q-25 0 -40 -13.5t-15 -36.5z" />
    <glyph glyph-name="seven.numerator" horiz-adv-x="308" 
d="M179 551h-166v89h279v-89l-132 -295h-113z" />
    <glyph glyph-name="eight.numerator" horiz-adv-x="339" 
d="M28 533q0 49 40 81t102 32t102 -32t40 -81q0 -25 -11.5 -45.5t-32.5 -34.5q26 -14 40 -36.5t14 -49.5q0 -50 -43.5 -83.5t-108.5 -33.5t-108.5 33.5t-43.5 83.5q0 27 14 49.5t40 36.5q-21 14 -32.5 34.5t-11.5 45.5zM170 490q22 0 34.5 9t12.5 26q0 15 -13 24.5t-34 9.5
q-22 0 -35 -9.5t-13 -25.5t13 -25t35 -9zM170 340q21 0 35.5 11t14.5 28t-14.5 28t-35.5 11t-36.5 -11.5t-15.5 -27.5t15.5 -27.5t36.5 -11.5z" />
    <glyph glyph-name="nine.numerator" horiz-adv-x="332" 
d="M283 393l-78 -137h-111l68 118h-8q-62 0 -101 36.5t-39 92.5q0 61 44 102t110 41t107.5 -39.5t41.5 -102.5q0 -29 -7.5 -53t-26.5 -58zM224 503q0 24 -15 37.5t-41 13.5q-25 0 -40 -13.5t-15 -37.5q0 -23 15 -36.5t40 -13.5t40.5 13.5t15.5 36.5z" />
    <glyph glyph-name="zero.denominator" horiz-adv-x="381" 
d="M18 192q0 89 47.5 143.5t124.5 54.5q78 0 125.5 -54.5t47.5 -143.5q0 -88 -48 -143t-125 -55q-76 0 -124 55t-48 143zM256 191q0 47 -17.5 75t-48.5 28q-30 0 -48 -28.5t-18 -74.5t18 -73.5t48 -27.5q32 0 49 26.5t17 74.5z" />
    </font>
</defs>
</svg>
